<?xml version="1.0" standalone="no"?>
<!DOCTYPE svg PUBLIC "-//W3C//DTD SVG 1.1//EN" "http://www.w3.org/Graphics/SVG/1.1/DTD/svg11.dtd" >
<svg xmlns="http://www.w3.org/2000/svg">
<metadata>Generated by IcoMoon</metadata>
<defs>
<font id="icomoon" horiz-adv-x="1024">
<font-face units-per-em="1024" ascent="960" descent="-64" />
<missing-glyph horiz-adv-x="1024" />
<glyph unicode="&#x20;" horiz-adv-x="512" d="" />
<glyph unicode="&#xe791;" glyph-name="caret-right" d="M384 768v-640l384 320z" />
<glyph unicode="&#xe900;" glyph-name="shield-check-line" d="M512 917.333l350.592-77.909c19.499-4.352 33.408-21.632 33.408-41.643v-426.112c0-85.589-42.795-165.547-114.005-212.992l-269.995-180.011-269.995 180.011c-71.253 47.488-114.005 127.403-114.005 212.949v426.155c0 20.011 13.909 37.291 33.408 41.643l350.592 77.909zM512 829.909l-298.667-66.347v-391.893c0-57.045 28.501-110.336 75.989-141.995l222.677-148.48 222.677 148.48c47.488 31.659 75.989 84.907 75.989 141.952v391.936l-298.667 66.304zM701.952 609.195l60.373-60.331-271.531-271.531-181.035 181.035 60.331 60.331 120.661-120.661 211.2 211.2z" />
<glyph unicode="&#xe901;" glyph-name="arrow-up-s-line" d="M512 498.005l-211.2-211.2-60.331 60.331 271.531 271.531 271.531-271.531-60.331-60.331z" />
<glyph unicode="&#xe902;" glyph-name="back-to-top" d="M896 746.667h-768v85.333h768v-85.333zM469.333 498.005l-259.029-259.072-60.331 60.331 362.027 362.069 362.027-362.027-60.331-60.373-259.029 258.987v-476.587h-85.333v476.672z" />
<glyph unicode="&#xe903;" glyph-name="edit-line" d="M273.664 277.333l432.725 432.725-60.331 60.331-432.725-432.725v-60.331h60.331zM309.035 192h-181.035v181.035l487.893 487.893c7.721 7.718 18.386 12.492 30.165 12.492s22.445-4.774 30.165-12.492l120.704-120.704c7.718-7.721 12.492-18.386 12.492-30.165s-4.774-22.445-12.492-30.165l-487.893-487.893zM128 106.667h768v-85.333h-768v85.333z" />
<glyph unicode="&#xe904;" glyph-name="angle-down" d="M512 397.995l211.2 211.2 60.331-60.331-271.531-271.531-271.531 271.531 60.331 60.331z" />
<glyph unicode="&#xe905;" glyph-name="announcement" d="M426.667 651.947l-144.939-118.613h-153.728v-170.667h153.728l144.939-118.613v407.893zM251.264 277.333h-165.931c-23.564 0-42.667 19.103-42.667 42.667v0 256c0 23.564 19.103 42.667 42.667 42.667v0h165.931l225.877 184.832c3.65 3.010 8.374 4.836 13.525 4.836 11.782 0 21.333-9.551 21.333-21.333 0-0.005 0-0.010 0-0.015v0.001-677.973c0-0.004 0-0.009 0-0.014 0-11.782-9.551-21.333-21.333-21.333-5.151 0-9.875 1.825-13.562 4.865l0.036-0.029-225.835 184.832zM827.989 100.949l-60.416 60.416c78.955 70.48 128.427 172.551 128.427 286.177 0 0.161 0 0.322 0 0.482v-0.025c0 0.106 0 0.231 0 0.356 0 119.445-54.645 226.127-140.299 296.41l-0.672 0.535 60.587 60.587c101.653-86.451 165.718-214.456 165.718-357.424 0-0.163 0-0.326 0-0.489v0.025c0-137.515-59.136-261.205-153.344-347.051zM676.821 252.117l-60.672 60.672c40.62 31.454 66.517 80.231 66.517 135.057 0 0.054 0 0.108 0 0.162v-0.008c0 61.013-32 114.56-80.213 144.725l61.397 61.397c63.465-47.063 104.149-121.734 104.149-205.906 0-0.076 0-0.152 0-0.228v0.012c0-78.592-35.413-148.907-91.179-195.883z" />
<glyph unicode="&#xe906;" glyph-name="append" d="M640 789.333h-426.667v-682.667h597.333v512h-170.667v170.667zM128 832.341c0 23.381 19.072 42.325 42.624 42.325h512.043l213.333-213.333v-597.035c0.001-0.089 0.001-0.194 0.001-0.3 0-23.459-18.933-42.497-42.353-42.666h-683.28c-23.317 0.168-42.176 19.012-42.368 42.307v768.701zM469.333 490.667v128h85.333v-128h128v-85.333h-128v-128h-85.333v128h-128v85.333h128z" />
<glyph unicode="&#xe907;" glyph-name="bell" d="M853.333 234.667h85.333v-85.333h-853.333v85.333h85.333v298.667c0 188.513 152.82 341.333 341.333 341.333s341.333-152.82 341.333-341.333v0-298.667zM768 234.667v298.667c0 141.385-114.615 256-256 256s-256-114.615-256-256v0-298.667h512zM384 64h256v-85.333h-256v85.333z" />
<glyph unicode="&#xe908;" glyph-name="check-circle-solid" d="M512 21.333c-235.648 0-426.667 191.019-426.667 426.667s191.019 426.667 426.667 426.667 426.667-191.019 426.667-426.667-191.019-426.667-426.667-426.667zM469.461 277.333l301.653 301.696-60.331 60.331-241.323-241.365-120.704 120.704-60.331-60.331 181.035-181.035z" />
<glyph unicode="&#xe909;" glyph-name="chess-queen-solid" d="M119.467 738.133l179.2-119.467 178.603 250.027c7.833 10.881 20.464 17.883 34.731 17.883s26.897-7.002 34.644-17.757l0.087-0.126 178.603-250.027 179.2 119.467c6.643 4.475 14.827 7.144 23.634 7.144 23.564 0 42.667-19.103 42.667-42.667 0-1.766-0.107-3.506-0.316-5.216l0.020 0.205-70.101-595.925c-2.584-21.316-20.565-37.672-42.368-37.675h-692.139c-21.803 0.003-39.784 16.359-42.348 37.47l-0.020 0.205-70.101 595.968c-0.184 1.49-0.29 3.215-0.29 4.964 0 23.564 19.103 42.667 42.667 42.667 8.804 0 16.986-2.667 23.781-7.237l-0.153 0.097zM512 320c47.128 0 85.333 38.205 85.333 85.333s-38.205 85.333-85.333 85.333v0c-47.128 0-85.333-38.205-85.333-85.333s38.205-85.333 85.333-85.333v0z" />
<glyph unicode="&#xe90a;" glyph-name="clipboard" d="M298.667 789.333v85.333h426.667v-85.333h128.299c23.381 0 42.368-18.987 42.368-42.368v-683.264c-0.024-23.389-18.979-42.344-42.366-42.368h-683.266c-23.389 0.024-42.344 18.979-42.368 42.366v683.266c0 23.381 18.987 42.368 42.368 42.368h128.299zM298.667 704h-85.333v-597.333h597.333v597.333h-85.333v-85.333h-426.667v85.333zM384 789.333v-85.333h256v85.333h-256z" />
<glyph unicode="&#xe90b;" glyph-name="comment" d="M275.413 149.333l-190.080-149.333v789.333c0 23.564 19.103 42.667 42.667 42.667v0h768c23.564 0 42.667-19.103 42.667-42.667v0-597.333c0-23.564-19.103-42.667-42.667-42.667v0h-620.587zM245.888 234.667h607.445v512h-682.667v-571.093l75.221 59.093zM341.333 533.333h341.333v-85.333h-341.333v85.333z" />
<glyph unicode="&#xe90c;" glyph-name="commentCount" d="M85.333 576.256c0 0.051 0 0.111 0 0.171 0 141.149 114.424 255.573 255.573 255.573 0.15 0 0.3 0 0.45 0h341.31c141.355 0 256-114.987 256-255.744v-512.256h-597.333c-141.355 0-256 114.987-256 255.744v256.512zM853.333 149.333v426.923c-0.243 94.108-76.539 170.314-170.658 170.411h-341.342c-0.127 0-0.277 0.001-0.427 0.001-94.021 0-170.24-76.219-170.24-170.24 0-0.060 0-0.12 0-0.18v0.009-256.512c0.243-94.108 76.539-170.314 170.658-170.411h512.009zM597.333 490.667h85.333v-85.333h-85.333v85.333zM341.333 490.667h85.333v-85.333h-85.333v85.333z" />
<glyph unicode="&#xe90d;" glyph-name="compass-line" d="M512 21.333c-235.648 0-426.667 191.019-426.667 426.667s191.019 426.667 426.667 426.667 426.667-191.019 426.667-426.667-191.019-426.667-426.667-426.667zM512 106.667c188.513 0 341.333 152.82 341.333 341.333s-152.82 341.333-341.333 341.333v0c-188.513 0-341.333-152.82-341.333-341.333s152.82-341.333 341.333-341.333v0zM704 640l-106.667-277.333-277.333-106.667 106.667 277.333 277.333 106.667zM512 405.333c23.564 0 42.667 19.103 42.667 42.667s-19.103 42.667-42.667 42.667v0c-23.564 0-42.667-19.103-42.667-42.667s19.103-42.667 42.667-42.667v0z" />
<glyph unicode="&#xe90e;" glyph-name="control-play" d="M699.477 448l-272.811 181.888v-363.776l272.811 181.888zM826.709 430.251l-452.224-301.483c-3.322-2.238-7.415-3.573-11.819-3.573-11.778 0-21.327 9.545-21.333 21.322v602.966c0.006 11.777 9.555 21.322 21.333 21.322 4.404 0 8.497-1.335 11.895-3.621l-0.076 0.048 452.224-301.483c5.76-3.881 9.498-10.378 9.498-17.749s-3.738-13.869-9.422-17.701l-0.076-0.048z" />
<glyph unicode="&#xe90f;" glyph-name="deposit" d="M512 21.333c-235.648 0-426.667 191.019-426.667 426.667s191.019 426.667 426.667 426.667 426.667-191.019 426.667-426.667-191.019-426.667-426.667-426.667zM512 106.667c188.513 0 341.333 152.82 341.333 341.333s-152.82 341.333-341.333 341.333v0c-188.513 0-341.333-152.82-341.333-341.333s152.82-341.333 341.333-341.333v0zM554.667 405.333h128v-85.333h-128v-85.333h-85.333v85.333h-128v85.333h128v42.667h-128v85.333h110.336l-90.539 90.496 60.416 60.373 90.453-90.539 90.496 90.539 60.373-60.373-90.539-90.496h110.336v-85.333h-128v-42.667z" />
<glyph unicode="&#xe910;" glyph-name="ellipsis-v-solid" d="M512 832c-46.933 0-85.333-38.4-85.333-85.333s38.4-85.333 85.333-85.333 85.333 38.4 85.333 85.333-38.4 85.333-85.333 85.333zM512 234.667c-46.933 0-85.333-38.4-85.333-85.333s38.4-85.333 85.333-85.333 85.333 38.4 85.333 85.333-38.4 85.333-85.333 85.333zM512 533.333c-46.933 0-85.333-38.4-85.333-85.333s38.4-85.333 85.333-85.333 85.333 38.4 85.333 85.333-38.4 85.333-85.333 85.333z" />
<glyph unicode="&#xe911;" glyph-name="email" d="M128 832h768c23.564 0 42.667-19.103 42.667-42.667v0-682.667c0-23.564-19.103-42.667-42.667-42.667v0h-768c-23.564 0-42.667 19.103-42.667 42.667v0 682.667c0 23.564 19.103 42.667 42.667 42.667v0zM853.333 651.179l-338.261-302.933-344.405 303.872v-502.784h682.667v501.845zM192.469 746.667l322.133-284.245 317.483 284.245h-639.616z" />
<glyph unicode="&#xe912;" glyph-name="favorites" d="M512 180.907l-300.928-168.448 67.2 338.261-253.227 234.155 342.485 40.619 144.469 313.173 144.469-313.173 342.485-40.619-253.227-234.155 67.2-338.261-300.928 168.448zM512 278.699l181.205-101.419-40.491 203.648 152.448 141.013-206.208 24.448-86.955 188.544-86.955-188.587-206.208-24.405 152.448-141.013-40.491-203.648 181.205 101.419z" />
<glyph unicode="&#xe913;" glyph-name="follower" d="M597.333 351.915v-89.173c-25.41 9.276-54.745 14.641-85.333 14.641-141.385 0-256-114.615-256-256 0-0.017 0-0.035 0-0.052v0.003l-85.333 0.043c0 0.026 0 0.056 0 0.087 0 188.513 152.82 341.333 341.333 341.333 30.324 0 59.725-3.954 87.715-11.376l-2.382 0.537zM512 405.333c-141.44 0-256 114.56-256 256s114.56 256 256 256 256-114.56 256-256-114.56-256-256-256zM512 490.667c94.293 0 170.667 76.373 170.667 170.667s-76.373 170.667-170.667 170.667-170.667-76.373-170.667-170.667 76.373-170.667 170.667-170.667zM759.168 110.336l150.827 150.827 60.373-60.331-211.2-211.2-150.869 150.869 60.373 60.331 90.453-90.496z" />
<glyph unicode="&#xe914;" glyph-name="heart" d="M512.043 766.763c100.224 89.984 255.104 86.997 351.659-9.728 96.512-96.768 99.84-250.88 10.069-351.403l-361.813-362.325-361.728 362.325c-89.771 100.523-86.4 254.891 10.069 351.403 96.64 96.597 251.221 99.84 351.744 9.728zM803.285 696.747c-64 64.085-167.253 66.688-234.24 6.528l-56.96-51.115-57.003 51.072c-67.2 60.245-170.24 57.6-234.411-6.571-63.573-63.573-66.773-165.333-8.192-232.576l299.52-299.989 299.52 299.947c58.624 67.285 55.424 168.917-8.235 232.704z" />
<glyph unicode="&#xe915;" glyph-name="heart-broken" d="M119.808 900.565l784.384-784.427-60.331-60.331-159.872 159.872-171.989-172.373-361.813 362.325c-87.040 97.451-86.528 245.461 1.451 342.315l-92.203 92.245 60.373 60.373zM212.48 464.085l299.52-299.989 111.659 111.915-411.52 411.52c-55.211-63.872-55.467-159.36 0.341-223.445zM863.701 757.035c96.512-96.768 99.84-250.88 10.069-351.403l-69.76-69.803-60.331 60.331 67.84 67.925c58.624 67.243 55.424 168.875-8.235 232.661-64 64.085-167.253 66.688-234.24 6.528l-56.96-51.115-57.003 51.072c-14.933 13.397-31.616 23.68-49.28 30.848l-96 96c71.168 8.789 145.365-12.331 202.24-63.317 100.224 89.984 255.104 86.997 351.659-9.728z" />
<glyph unicode="&#xe916;" glyph-name="help-alt" d="M512 21.333c-235.648 0-426.667 191.019-426.667 426.667s191.019 426.667 426.667 426.667 426.667-191.019 426.667-426.667-191.019-426.667-426.667-426.667zM512 106.667c188.513 0 341.333 152.82 341.333 341.333s-152.82 341.333-341.333 341.333v0c-188.513 0-341.333-152.82-341.333-341.333s152.82-341.333 341.333-341.333v0zM469.333 320h85.333v-85.333h-85.333v85.333zM554.667 390.187v-27.52h-85.333v64c0 23.564 19.103 42.667 42.667 42.667v0c35.344 0.002 63.996 28.655 63.996 64s-28.654 64-64 64c-30.907 0-56.697-21.908-62.688-51.043l-0.071-0.413-83.712 16.768c14.159 68.95 74.346 120.070 146.473 120.070 82.498 0 149.376-66.878 149.376-149.376 0-67.284-44.486-124.178-105.649-142.874l-1.058-0.278z" />
<glyph unicode="&#xe917;" glyph-name="home" d="M810.667 64h-597.333c-23.564 0-42.667 19.103-42.667 42.667v0 384h-128l440.619 400.555c7.55 6.889 17.64 11.109 28.715 11.109s21.164-4.22 28.748-11.139l-0.034 0.030 440.619-400.555h-128v-384c0-23.564-19.103-42.667-42.667-42.667v0zM256 149.333h512v419.968l-256 232.704-256-232.704v-419.968zM341.333 320h341.333v-85.333h-341.333v85.333z" />
<glyph unicode="&#xe918;" glyph-name="info-alt" d="M512 21.333c-235.648 0-426.667 191.019-426.667 426.667s191.019 426.667 426.667 426.667 426.667-191.019 426.667-426.667-191.019-426.667-426.667-426.667zM512 106.667c188.513 0 341.333 152.82 341.333 341.333s-152.82 341.333-341.333 341.333v0c-188.513 0-341.333-152.82-341.333-341.333s152.82-341.333 341.333-341.333v0zM469.333 661.333h85.333v-85.333h-85.333v85.333zM469.333 490.667h85.333v-256h-85.333v256z" />
<glyph unicode="&#xe919;" glyph-name="lock-2" d="M810.667 533.333h42.667c23.564 0 42.667-19.103 42.667-42.667v0-426.667c0-23.564-19.103-42.667-42.667-42.667v0h-682.667c-23.564 0-42.667 19.103-42.667 42.667v0 426.667c0 23.564 19.103 42.667 42.667 42.667v0h42.667v42.667c0 164.949 133.718 298.667 298.667 298.667s298.667-133.718 298.667-298.667v0-42.667zM213.333 448v-341.333h597.333v341.333h-597.333zM469.333 362.667h85.333v-170.667h-85.333v170.667zM725.333 533.333v42.667c0 117.821-95.513 213.333-213.333 213.333s-213.333-95.513-213.333-213.333v0-42.667h426.667z" />
<glyph unicode="&#xe91a;" glyph-name="lock-solid" horiz-adv-x="896" d="M800 512h-48v144c0 167.6-136.4 304-304 304s-304-136.4-304-304v-144h-48c-53 0-96-43-96-96v-384c0-53 43-96 96-96h704c53 0 96 43 96 96v384c0 53-43 96-96 96zM592 512h-288v144c0 79.4 64.6 144 144 144s144-64.6 144-144v-144z" />
<glyph unicode="&#xe91b;" glyph-name="lock-solid-2" d="M810.667 533.333h42.667c23.564 0 42.667-19.103 42.667-42.667v0-426.667c0-23.564-19.103-42.667-42.667-42.667v0h-682.667c-23.564 0-42.667 19.103-42.667 42.667v0 426.667c0 23.564 19.103 42.667 42.667 42.667v0h42.667v42.667c0 164.949 133.718 298.667 298.667 298.667s298.667-133.718 298.667-298.667v0-42.667zM725.333 533.333v42.667c0 117.821-95.513 213.333-213.333 213.333s-213.333-95.513-213.333-213.333v0-42.667h426.667zM469.333 362.667v-170.667h85.333v170.667h-85.333z" />
<glyph unicode="&#xe91c;" glyph-name="log" d="M810.667 21.333h-597.333c-70.692 0-128 57.308-128 128v0 682.667c0 23.564 19.103 42.667 42.667 42.667v0h597.333c23.564 0 42.667-19.103 42.667-42.667v0-512h170.667v-170.667c0-70.692-57.308-128-128-128v0zM768 234.667v-85.333c0-23.564 19.103-42.667 42.667-42.667s42.667 19.103 42.667 42.667v0 85.333h-85.333zM682.667 106.667v682.667h-512v-640c0-23.564 19.103-42.667 42.667-42.667v0h469.333zM256 661.333h341.333v-85.333h-341.333v85.333zM256 490.667h341.333v-85.333h-341.333v85.333zM256 320h213.333v-85.333h-213.333v85.333z" />
<glyph unicode="&#xe91d;" glyph-name="login" d="M170.667 320h85.333v-213.333h512v682.667h-512v-213.333h-85.333v256c0 23.564 19.103 42.667 42.667 42.667v0h597.333c23.564 0 42.667-19.103 42.667-42.667v0-768c0-23.564-19.103-42.667-42.667-42.667v0h-597.333c-23.564 0-42.667 19.103-42.667 42.667v0 256zM426.667 490.667v128l213.333-170.667-213.333-170.667v128h-341.333v85.333h341.333z" />
<glyph unicode="&#xe91e;" glyph-name="membershipCard" d="M128 832h768c23.564 0 42.667-19.103 42.667-42.667v0-682.667c0-23.564-19.103-42.667-42.667-42.667v0h-768c-23.564 0-42.667 19.103-42.667 42.667v0 682.667c0 23.564 19.103 42.667 42.667 42.667v0zM853.333 490.667h-682.667v-341.333h682.667v341.333zM853.333 576v170.667h-682.667v-170.667h682.667zM597.333 320h170.667v-85.333h-170.667v85.333z" />
<glyph unicode="&#xe91f;" glyph-name="menu" d="M128 789.333h768v-85.333h-768v85.333zM128 490.667h768v-85.333h-768v85.333zM128 192h768v-85.333h-768v85.333z" />
<glyph unicode="&#xe920;" glyph-name="menu-alt" d="M341.333 789.333h554.667v-85.333h-554.667v85.333zM192 682.667c-35.346 0-64 28.654-64 64s28.654 64 64 64v0c35.346 0 64-28.654 64-64s-28.654-64-64-64v0zM192 384c-35.346 0-64 28.654-64 64s28.654 64 64 64v0c35.346 0 64-28.654 64-64s-28.654-64-64-64v0zM192 89.6c-35.346 0-64 28.654-64 64s28.654 64 64 64v0c35.346 0 64-28.654 64-64s-28.654-64-64-64v0zM341.333 490.667h554.667v-85.333h-554.667v85.333zM341.333 192h554.667v-85.333h-554.667v85.333z" />
<glyph unicode="&#xe921;" glyph-name="order" d="M725.333 874.667v-85.333h128.299c23.381 0 42.368-18.987 42.368-42.368v-683.264c0-23.381-18.987-42.368-42.368-42.368h-683.264c-23.381 0-42.368 18.987-42.368 42.368v683.264c0 23.381 18.987 42.368 42.368 42.368h128.299v85.333h426.667zM298.667 704h-85.333v-597.333h597.333v597.333h-85.333v-85.333h-426.667v85.333zM384 277.333v-85.333h-85.333v85.333h85.333zM384 405.333v-85.333h-85.333v85.333h85.333zM384 533.333v-85.333h-85.333v85.333h85.333zM640 789.333h-256v-85.333h256v85.333z" />
<glyph unicode="&#xe922;" glyph-name="pencil" d="M671.061 546.731l-60.331 60.331-397.397-397.397v-60.331h60.331l397.397 397.397zM731.392 607.061l60.331 60.331-60.331 60.331-60.331-60.331 60.331-60.331zM308.992 64h-180.992v181.035l573.227 573.227c7.721 7.718 18.386 12.492 30.165 12.492s22.445-4.774 30.165-12.492l120.704-120.704c7.718-7.721 12.492-18.386 12.492-30.165s-4.774-22.445-12.492-30.165l-573.227-573.227z" />
<glyph unicode="&#xe923;" glyph-name="pencil-alt" d="M714.965 832l-85.333-85.333h-416.299v-597.333h597.333v416.299l85.333 85.333v-544.299c0-23.564-19.103-42.667-42.667-42.667v0h-682.667c-23.564 0-42.667 19.103-42.667 42.667v0 682.667c0 23.564 19.103 42.667 42.667 42.667v0h544.299zM874.027 870.4l60.373-60.416-392.192-392.192-60.245-0.128-0.085 60.459 392.149 392.277z" />
<glyph unicode="&#xe924;" glyph-name="point" d="M512 21.333c-235.648 0-426.667 191.019-426.667 426.667s191.019 426.667 426.667 426.667 426.667-191.019 426.667-426.667-191.019-426.667-426.667-426.667zM512 106.667c188.513 0 341.333 152.82 341.333 341.333s-152.82 341.333-341.333 341.333v0c-188.513 0-341.333-152.82-341.333-341.333s152.82-341.333 341.333-341.333v0zM512 659.2l211.2-211.2-211.2-211.2-211.2 211.2 211.2 211.2zM512 538.496l-90.496-90.496 90.496-90.496 90.496 90.496-90.496 90.496z" />
<glyph unicode="&#xe925;" glyph-name="pulse" d="M384 638.336l256-597.333 156.117 364.331h185.216v85.333h-241.451l-99.883-233.003-256 597.333-156.117-364.331h-185.216v-85.333h241.451z" />
<glyph unicode="&#xe926;" glyph-name="question-answer-line" d="M232.747 320l-190.080-149.333v661.333c0 23.564 19.103 42.667 42.667 42.667v0h640c23.564 0 42.667-19.103 42.667-42.667v0-512h-535.253zM203.221 405.333h479.445v384h-554.667v-443.093l75.221 59.093zM341.333 234.667h436.779l75.221-59.093v443.093h42.667c23.564 0 42.667-19.103 42.667-42.667v0-576l-190.080 149.333h-364.587c-23.564 0-42.667 19.103-42.667 42.667v0 42.667z" />
<glyph unicode="&#xe927;" glyph-name="quote" d="M896 832c23.552 0 42.667-19.115 42.667-42.667v-597.333c0-23.552-19.115-42.667-42.667-42.667h-620.587l-190.080-149.333v789.333c0 23.552 19.115 42.667 42.667 42.667h768zM853.333 746.667h-682.667v-571.093l75.221 59.093h607.445v512zM448.64 643.755l19.072-29.355c-71.168-38.528-69.931-100.352-69.931-113.664 6.613 0.853 13.568 1.024 20.48 0.384 38.485-3.584 68.821-35.2 68.821-74.453 0-41.216-33.451-74.667-74.667-74.667-22.912 0-44.8 10.453-58.624 25.173-21.973 23.296-33.792 49.493-33.792 91.947 0 74.667 52.395 141.568 128.64 174.635zM661.973 643.755l19.072-29.355c-71.168-38.528-69.931-100.352-69.931-113.664 6.613 0.853 13.568 1.024 20.48 0.384 38.485-3.584 68.821-35.2 68.821-74.453 0-41.216-33.451-74.667-74.667-74.667-22.912 0-44.8 10.453-58.624 25.173-21.973 23.296-33.792 49.493-33.792 91.947 0 74.667 52.395 141.568 128.64 174.635z" />
<glyph unicode="&#xe928;" glyph-name="quote-left-solid" d="M195.541 220.971c-43.947 46.677-67.541 99.029-67.541 183.893 0 149.333 104.832 283.179 257.28 349.355l38.101-58.795c-142.293-76.971-170.112-176.853-181.205-239.829 22.912 11.861 52.907 16 82.304 13.269 76.971-7.125 137.643-70.315 137.643-148.864 0-82.475-66.859-149.333-149.333-149.333v0c-45.781 0-89.557 20.907-117.248 50.304zM622.208 220.971c-43.947 46.677-67.541 99.029-67.541 183.893 0 149.333 104.832 283.179 257.28 349.355l38.101-58.795c-142.293-76.971-170.112-176.853-181.205-239.829 22.912 11.861 52.907 16 82.304 13.269 76.971-7.125 137.643-70.315 137.643-148.864 0-82.475-66.859-149.333-149.333-149.333v0c-45.781 0-89.557 20.907-117.248 50.304z" />
<glyph unicode="&#xe929;" glyph-name="quote-right-solid" d="M828.459 675.029c43.947-46.677 67.541-99.029 67.541-183.893 0-149.333-104.832-283.179-257.28-349.355l-38.101 58.795c142.293 76.971 170.112 176.853 181.205 239.829-22.912-11.861-52.907-16-82.304-13.269-76.971 7.125-137.643 70.315-137.643 148.864 0 82.475 66.859 149.333 149.333 149.333v0c45.781 0 89.557-20.907 117.248-50.304zM401.792 675.029c43.947-46.677 67.541-99.029 67.541-183.893 0-149.333-104.832-283.179-257.28-349.355l-38.101 58.795c142.293 76.971 170.112 176.853 181.205 239.829-22.912-11.861-52.907-16-82.304-13.269-76.971 7.125-137.6 70.315-137.6 148.864 0 82.475 66.859 149.333 149.333 149.333v0c45.781 0 89.557-20.907 117.248-50.304z" />
<glyph unicode="&#xe92a;" glyph-name="realNameAuthentication" d="M85.333 789.632c0.168 23.317 19.012 42.176 42.307 42.368h768.701c23.381 0 42.325-18.987 42.325-42.368v-683.264c-0.168-23.317-19.012-42.176-42.307-42.368h-768.701c-23.381 0.024-42.325 18.984-42.325 42.368v0 683.264zM170.667 746.667v-597.333h682.667v597.333h-682.667zM256 661.333h256v-256h-256v256zM341.333 576v-85.333h85.333v85.333h-85.333zM256 320h512v-85.333h-512v85.333zM597.333 661.333h170.667v-85.333h-170.667v85.333zM597.333 490.667h170.667v-85.333h-170.667v85.333z" />
<glyph unicode="&#xe92b;" glyph-name="recharge" d="M469.333 874.667l311.381-97.28c17.5-5.587 29.952-21.703 29.952-40.728 0-0.007 0-0.013 0-0.020v0.001-75.307h85.333c23.564 0 42.667-19.103 42.667-42.667v0-341.333c0-23.564-19.103-42.667-42.667-42.667v0l-137.387-0.043c-16.512-21.76-36.565-40.96-59.733-56.747l-229.547-156.544-229.547 156.501c-67.865 46.728-111.787 123.992-111.787 211.515 0 0.009 0 0.019 0 0.028v-0.001 347.264c0.011 19.015 12.459 35.12 29.65 40.621l0.302 0.083 311.381 97.323zM469.333 785.323l-256-80.043v-315.904c0-0.012 0-0.026 0-0.040 0-54.851 25.876-103.659 66.088-134.882l0.387-0.289 8.064-5.803 181.461-123.776 161.365 110.080h-204.032c-23.564 0-42.667 19.103-42.667 42.667v0 341.333c0 23.564 19.103 42.667 42.667 42.667v0h298.667v43.947l-256 80.043zM469.333 448v-128h384v128h-384zM469.333 533.333h384v42.667h-384v-42.667z" />
<glyph unicode="&#xe92c;" glyph-name="redEnvelope-1" d="M896 706.688c-73.896-83.627-173.909-142.657-287.19-164.312l-3.199-0.509c-18.474 33.337-53.451 55.531-93.611 55.531s-75.136-22.194-93.333-54.986l-0.278-0.546c-116.479 22.164-216.493 81.193-289.914 164.274l-0.475 0.548v125.312c0 23.564 19.103 42.667 42.667 42.667v0h682.667c23.564 0 42.667-19.103 42.667-42.667v0-125.312zM896 587.776v-523.776c0-23.564-19.103-42.667-42.667-42.667v0h-682.667c-23.564 0-42.667 19.103-42.667 42.667v0 523.776c77.68-65.711 173.693-112.145 279.306-130.722l3.574-0.521c14.664-42.58 54.383-72.627 101.12-72.627s86.456 30.047 100.895 71.877l0.225 0.75c109.187 19.098 205.2 65.532 283.757 131.965l-0.877-0.723z" />
<glyph unicode="&#xe92d;" glyph-name="redEnvelope-2" d="M604.715 543.445c80.932 18.397 150.829 57.703 206.013 111.932l-0.061-0.060v134.016h-597.333v-134.016c55.123-54.169 125.020-93.475 203.093-111.322l2.859-0.55c18.707 32.44 53.202 53.924 92.715 53.924s74.008-21.485 92.44-53.409l0.274-0.515zM613.589 458.112c-14.237-43.323-54.325-74.052-101.589-74.052s-87.352 30.729-101.374 73.298l-0.215 0.754c-75.061 15.424-141.3 45.373-198.548 86.948l1.471-1.017v-437.376h597.333v437.419c-55.774-40.588-122.011-70.564-193.776-85.444l-3.301-0.572zM170.667 874.667h682.667c23.564 0 42.667-19.103 42.667-42.667v0-768c0-23.564-19.103-42.667-42.667-42.667v0h-682.667c-23.564 0-42.667 19.103-42.667 42.667v0 768c0 23.564 19.103 42.667 42.667 42.667v0z" />
<glyph unicode="&#xe92e;" glyph-name="reply" d="M275.413 149.333l-190.080-149.333v789.333c0 23.564 19.103 42.667 42.667 42.667v0h768c23.564 0 42.667-19.103 42.667-42.667v0-597.333c0-23.564-19.103-42.667-42.667-42.667v0h-620.587zM245.888 234.667h607.445v512h-682.667v-571.093l75.221 59.093zM469.333 533.333h85.333v-85.333h-85.333v85.333zM298.667 533.333h85.333v-85.333h-85.333v85.333zM640 533.333h85.333v-85.333h-85.333v85.333z" />
<glyph unicode="&#xe92f;" glyph-name="reply2" d="M245.888 234.667h607.445v512h-682.667v-571.093l75.221 59.093zM275.413 149.333l-190.080-149.333v789.333c0 23.564 19.103 42.667 42.667 42.667v0h768c23.564 0 42.667-19.103 42.667-42.667v0-597.333c0-23.564-19.103-42.667-42.667-42.667v0h-620.587z" />
<glyph unicode="&#xe930;" glyph-name="search" d="M769.323 251.008l182.741-182.699-60.373-60.373-182.699 182.741c-64.857-52.336-148.287-84.011-239.115-84.011-0.191 0-0.382 0-0.573 0h0.030c-211.968 0-384 172.032-384 384s172.032 384 384 384 384-172.032 384-384c0-0.162 0-0.353 0-0.544 0-90.828-31.675-174.258-84.581-239.846l0.57 0.731zM683.733 282.667c52.123 53.559 84.267 126.791 84.267 207.531 0 0.165 0 0.33 0 0.494v-0.025c0 165.035-133.675 298.667-298.667 298.667-165.035 0-298.667-133.632-298.667-298.667 0-164.992 133.632-298.667 298.667-298.667 0.139 0 0.304 0 0.469 0 80.74 0 153.972 32.144 207.598 84.332l-0.067-0.065 6.4 6.4z" />
<glyph unicode="&#xe931;" glyph-name="server" d="M213.333 490.667h597.333v256h-597.333v-256zM896 789.333v-682.667c0-23.564-19.103-42.667-42.667-42.667v0h-682.667c-23.564 0-42.667 19.103-42.667 42.667v0 682.667c0 23.564 19.103 42.667 42.667 42.667v0h682.667c23.564 0 42.667-19.103 42.667-42.667v0zM810.667 405.333h-597.333v-256h597.333v256zM298.667 320h128v-85.333h-128v85.333zM298.667 661.333h128v-85.333h-128v85.333z" />
<glyph unicode="&#xe932;" glyph-name="settings" d="M94.421 360.107c-5.851 26.419-9.203 56.765-9.203 87.893s3.352 61.473 9.714 90.694l-0.512-2.801c47.36-5.547 88.747 10.112 102.229 42.709 13.525 32.64-4.608 72.96-42.069 102.528 32.832 49.979 74.309 91.456 122.69 123.3l1.598 0.988c29.525-37.419 69.888-55.595 102.528-42.069s48.299 54.869 42.709 102.229c26.419 5.851 56.765 9.203 87.893 9.203s61.473-3.352 90.694-9.714l-2.801 0.512c-5.547-47.36 10.112-88.747 42.709-102.229 32.64-13.525 72.96 4.608 102.528 42.069 49.979-32.832 91.456-74.309 123.3-122.69l0.988-1.598c-37.419-29.525-55.595-69.888-42.069-102.528s54.869-48.299 102.229-42.709c5.851-26.419 9.203-56.765 9.203-87.893s-3.352-61.473-9.714-90.694l0.512 2.801c-47.36 5.547-88.747-10.112-102.229-42.709-13.525-32.64 4.608-72.96 42.069-102.528-32.832-49.979-74.309-91.456-122.69-123.3l-1.598-0.988c-29.525 37.419-69.888 55.595-102.528 42.069s-48.299-54.869-42.709-102.229c-26.419-5.851-56.765-9.203-87.893-9.203s-61.473 3.352-90.694 9.714l2.801-0.512c5.547 47.36-10.112 88.747-42.709 102.229-32.64 13.525-72.96-4.608-102.528-42.069-49.979 32.832-91.456 74.309-123.3 122.69l-0.988 1.598c37.419 29.525 55.595 69.888 42.069 102.528s-54.869 48.299-102.229 42.709zM170.667 439.040c46.933-13.013 85.632-42.752 104.832-89.003 19.157-46.293 12.8-94.72-11.179-137.045 4.096-4.352 8.32-8.576 12.672-12.672 42.368 23.979 90.752 30.293 137.045 11.179 46.251-19.2 75.989-57.899 89.003-104.832 5.973-0.171 11.947-0.171 17.92 0 13.013 46.933 42.752 85.632 89.003 104.832 46.293 19.157 94.72 12.8 137.045-11.179 4.352 4.096 8.576 8.32 12.672 12.672-23.979 42.368-30.293 90.752-11.179 137.045 19.2 46.251 57.899 75.989 104.832 89.003 0.171 5.973 0.171 11.947 0 17.92-46.933 13.013-85.632 42.752-104.832 89.003-19.157 46.293-12.8 94.72 11.179 137.045-4.16 4.381-8.291 8.512-12.526 12.534l-0.146 0.138c-42.368-23.979-90.752-30.293-137.045-11.179-46.251 19.2-75.989 57.899-89.003 104.832-2.669 0.076-5.809 0.119-8.96 0.119s-6.291-0.043-9.421-0.129l0.461 0.010c-13.013-46.933-42.752-85.632-89.003-104.832-46.293-19.157-94.72-12.8-137.045 11.179-4.352-4.096-8.576-8.32-12.672-12.672 23.979-42.368 30.293-90.752 11.179-137.045-19.2-46.251-57.899-75.989-104.832-89.003-0.171-5.973-0.171-11.947 0-17.92zM512 320c-70.692 0-128 57.308-128 128s57.308 128 128 128v0c70.692 0 128-57.308 128-128s-57.308-128-128-128v0zM512 405.333c23.564 0 42.667 19.103 42.667 42.667s-19.103 42.667-42.667 42.667v0c-23.564 0-42.667-19.103-42.667-42.667s19.103-42.667 42.667-42.667v0z" />
<glyph unicode="&#xe933;" glyph-name="tag" d="M213.333 874.667h597.333c23.564 0 42.667-19.103 42.667-42.667v0-816.768c0-0.008 0-0.017 0-0.027 0-11.782-9.551-21.333-21.333-21.333-4.208 0-8.131 1.218-11.436 3.321l0.087-0.051-308.651 193.579-308.651-193.536c-3.219-2.051-7.142-3.269-11.349-3.269-11.776 0-21.324 9.542-21.333 21.317v816.769c0 23.564 19.103 42.667 42.667 42.667v0zM768 789.333h-512v-658.432l256 160.469 256-160.469v658.432zM341.333 576h341.333v-85.333h-341.333v85.333z" />
<glyph unicode="&#xe934;" glyph-name="themify-check" d="M426.667 312.661l392.192 392.235 60.373-60.331-452.565-452.565-271.531 271.531 60.331 60.331z" />
<glyph unicode="&#xe935;" glyph-name="themify-close" d="M512 508.331l211.2 211.2 60.331-60.331-211.2-211.2 211.2-211.2-60.331-60.331-211.2 211.2-211.2-211.2-60.331 60.331 211.2 211.2-211.2 211.2 60.331 60.331z" />
<glyph unicode="&#xe936;" glyph-name="thumb-down" d="M401.067 277.333h-273.067c-47.128 0-85.333 38.205-85.333 85.333v0 89.771c0 0.026 0 0.057 0 0.088 0 11.694 2.352 22.838 6.609 32.986l-0.209-0.562 132.096 320.597c6.549 15.642 21.724 26.435 39.422 26.453h718.082c23.564 0 42.667-19.103 42.667-42.667v0-426.667c0-23.564-19.103-42.667-42.667-42.667v0h-148.565c-0.003 0-0.007 0-0.011 0-14.338 0-27.023-7.072-34.759-17.918l-0.088-0.13-232.661-329.643c-3.912-5.493-10.258-9.033-17.43-9.033-3.475 0-6.757 0.831-9.656 2.305l0.121-0.056-77.397 38.741c-35.246 17.9-58.977 53.885-58.977 95.412 0 9.349 1.203 18.417 3.462 27.058l-0.165-0.742 38.528 151.339zM725.333 387.755v358.912h-476.16l-121.173-294.229v-89.771h273.067c47.123-0.007 85.321-38.209 85.321-85.333 0-7.473-0.961-14.721-2.765-21.628l0.132 0.594-38.528-151.381c-0.421-1.584-0.663-3.403-0.663-5.278 0-8.307 4.748-15.505 11.678-19.028l0.121-0.056 28.203-14.080 200.96 284.672c10.667 15.104 24.32 27.477 39.808 36.608zM810.667 405.333h85.333v341.333h-85.333v-341.333z" />
<glyph unicode="&#xe937;" glyph-name="thumb-up" d="M622.933 618.667h273.067c47.128 0 85.333-38.205 85.333-85.333v0-89.771c0-0.026 0-0.057 0-0.088 0-11.694-2.352-22.838-6.609-32.986l0.209 0.562-132.053-320.64c-6.565-15.632-21.748-26.411-39.449-26.411-0.006 0-0.013 0-0.019 0h-718.079c-23.564 0-42.667 19.103-42.667 42.667v0 426.667c0 23.564 19.103 42.667 42.667 42.667v0h148.565c0.003 0 0.007 0 0.011 0 14.338 0 27.023 7.072 34.759 17.918l0.088 0.13 232.661 329.685c3.912 5.493 10.258 9.033 17.43 9.033 3.475 0 6.757-0.831 9.656-2.305l-0.121 0.056 77.397-38.699c35.246-17.9 58.977-53.885 58.977-95.412 0-9.349-1.203-18.417-3.462-27.058l0.165 0.742-38.528-151.424zM298.667 508.245v-358.912h476.16l121.173 294.229v89.771h-273.067c-47.123 0.007-85.321 38.209-85.321 85.333 0 7.473 0.961 14.721 2.765 21.628l-0.132-0.594 38.528 151.381c0.421 1.584 0.663 3.403 0.663 5.278 0 8.307-4.748 15.505-11.678 19.028l-0.121 0.056-28.203 14.080-200.96-284.672c-10.667-15.104-24.32-27.477-39.808-36.608zM213.333 490.667h-85.333v-341.333h85.333v341.333z" />
<glyph unicode="&#xe938;" glyph-name="topic" d="M597.333 0l-119.467 149.333h-221.867c-23.564 0-42.667 19.103-42.667 42.667v0 464.939c0 23.564 19.103 42.667 42.667 42.667v0h682.667c23.564 0 42.667-19.103 42.667-42.667v0-464.939c0-23.564-19.103-42.667-42.667-42.667v0h-221.867l-119.467-149.333zM675.797 234.667h220.203v379.605h-597.333v-379.605h220.203l78.464-98.048 78.464 98.048zM85.333 874.667h725.333v-85.333h-682.667v-469.333h-85.333v512c0 23.564 19.103 42.667 42.667 42.667v0z" />
<glyph unicode="&#xe939;" glyph-name="trash" d="M725.333 704h213.333v-85.333h-85.333v-554.667c0-23.564-19.103-42.667-42.667-42.667v0h-597.333c-23.564 0-42.667 19.103-42.667 42.667v0 554.667h-85.333v85.333h213.333v128c0 23.564 19.103 42.667 42.667 42.667v0h341.333c23.564 0 42.667-19.103 42.667-42.667v0-128zM768 618.667h-512v-512h512v512zM384 490.667h85.333v-256h-85.333v256zM554.667 490.667h85.333v-256h-85.333v256zM384 789.333v-85.333h256v85.333h-256z" />
<glyph unicode="&#xe93a;" glyph-name="trophy-solid" d="M554.667 237.312v-87.979h213.333v-85.333h-512v85.333h213.333v87.979c-169.261 21.956-298.664 165.21-298.667 338.688v0 256h682.667v-256c-0.003-173.479-129.406-316.733-296.951-338.506l-1.715-0.182zM42.667 746.667h85.333v-170.667h-85.333v170.667zM896 746.667h85.333v-170.667h-85.333v170.667z" />
<glyph unicode="&#xe93b;" glyph-name="unlock-solid" horiz-adv-x="896" d="M800 448h-496v206.2c0 79.2 63.4 145 142.6 145.8 80 0.8 145.4-64.2 145.4-144v-32c0-26.6 21.4-48 48-48h64c26.6 0 48 21.4 48 48v32c0 168-137 304.6-305 304s-303-139-303-307v-205h-48c-53 0-96-43-96-96v-320c0-53 43-96 96-96h704c53 0 96 43 96 96v320c0 53-43 96-96 96zM528 144c0-44.2-35.8-80-80-80s-80 35.8-80 80v96c0 44.2 35.8 80 80 80s80-35.8 80-80v-96z" />
<glyph unicode="&#xe93c;" glyph-name="unlock-solid-2" d="M298.667 533.333h554.667c23.564 0 42.667-19.103 42.667-42.667v0-426.667c0-23.564-19.103-42.667-42.667-42.667v0h-682.667c-23.564 0-42.667 19.103-42.667 42.667v0 426.667c0 23.564 19.103 42.667 42.667 42.667v0h42.667v42.667c0 0.032 0 0.070 0 0.108 0 164.949 133.718 298.667 298.667 298.667 116.295 0 217.066-66.468 266.395-163.487l0.783-1.698-76.331-38.144c-35.792 70.519-107.775 118.002-190.848 118.002-117.821 0-213.333-95.513-213.333-213.333 0-0.040 0-0.080 0-0.12v0.006-42.667zM426.667 320v-85.333h170.667v85.333h-170.667z" />
<glyph unicode="&#xe93d;" glyph-name="user" d="M853.333 21.333h-85.333v85.333c0 70.692-57.308 128-128 128v0h-256c-70.692 0-128-57.308-128-128v0-85.333h-85.333v85.333c0 117.821 95.513 213.333 213.333 213.333v0h256c117.821 0 213.333-95.513 213.333-213.333v0-85.333zM512 405.333c-141.385 0-256 114.615-256 256s114.615 256 256 256v0c141.385 0 256-114.615 256-256s-114.615-256-256-256v0zM512 490.667c94.257 0 170.667 76.41 170.667 170.667s-76.41 170.667-170.667 170.667v0c-94.257 0-170.667-76.41-170.667-170.667s76.41-170.667 170.667-170.667v0z" />
<glyph unicode="&#xe93e;" glyph-name="user2" d="M853.333 21.333h-682.667v85.333c0 117.821 95.513 213.333 213.333 213.333v0h256c117.821 0 213.333-95.513 213.333-213.333v0-85.333zM512 405.333c-141.385 0-256 114.615-256 256s114.615 256 256 256v0c141.385 0 256-114.615 256-256s-114.615-256-256-256v0z" />
<glyph unicode="&#xe93f;" glyph-name="view" d="M512 832c230.059 0 421.461-165.547 461.611-384-40.107-218.453-231.552-384-461.611-384s-421.461 165.547-461.611 384c40.107 218.453 231.552 384 461.611 384zM512 149.333c181.829 0.041 334.137 126.382 373.971 296.065l0.515 2.602c-40.491 172.13-192.753 298.303-374.485 298.303s-333.994-126.173-373.967-295.697l-0.518-2.605c40.348-172.284 192.657-298.626 374.481-298.667h0.004zM512 256c-106.039 0-192 85.961-192 192s85.961 192 192 192v0c106.039 0 192-85.961 192-192s-85.961-192-192-192v0zM512 341.333c58.91 0 106.667 47.756 106.667 106.667s-47.756 106.667-106.667 106.667v0c-58.91 0-106.667-47.756-106.667-106.667s47.756-106.667 106.667-106.667v0z" />
<glyph unicode="&#xe940;" glyph-name="menu-fold-fill" d="M896 192v-85.333h-768v85.333h768zM296.533 808.533v-422.4l-211.2 211.2 211.2 211.2zM896 490.667v-85.333h-384v85.333h384zM896 789.333v-85.333h-384v85.333h384z" />
<glyph unicode="&#xe941;" glyph-name="menu-unfold-fill" d="M896 192v-85.333h-768v85.333h768zM727.467 808.533l211.2-211.2-211.2-211.2v422.4zM512 490.667v-85.333h-384v85.333h384zM512 789.333v-85.333h-384v85.333h384z" />
<glyph unicode="&#xe942;" glyph-name="chat-line" d="M426.667 832h170.667c188.513 0 341.333-152.82 341.333-341.333s-152.82-341.333-341.333-341.333v0-149.333c-213.333 85.333-512 213.333-512 490.667 0 188.513 152.82 341.333 341.333 341.333v0zM512 234.667h85.333c141.385 0 256 114.615 256 256s-114.615 256-256 256v0h-170.667c-141.385 0-256-114.615-256-256v0c0-154.027 105.045-254.549 341.333-361.813v105.813z" />
<glyph unicode="&#xe943;" glyph-name="smartphone-line" d="M298.667 789.333v-682.667h426.667v682.667h-426.667zM256 874.667h512c23.564 0 42.667-19.103 42.667-42.667v0-768c0-23.564-19.103-42.667-42.667-42.667v0h-512c-23.564 0-42.667 19.103-42.667 42.667v0 768c0 23.564 19.103 42.667 42.667 42.667v0zM512 234.667c23.564 0 42.667-19.103 42.667-42.667s-19.103-42.667-42.667-42.667v0c-23.564 0-42.667 19.103-42.667 42.667s19.103 42.667 42.667 42.667v0z" />
<glyph unicode="&#xe944;" glyph-name="arrow-left-s-line" d="M461.995 448l211.2-211.2-60.331-60.331-271.531 271.531 271.531 271.531 60.331-60.331z" />
<glyph unicode="&#xe945;" glyph-name="arrow-right-s-line" d="M562.005 448l-211.2 211.2 60.331 60.331 271.531-271.531-271.531-271.531-60.331 60.331z" />
<glyph unicode="&#xe946;" glyph-name="logout-box-r-line" d="M213.333 21.333c-23.564 0-42.667 19.103-42.667 42.667v0 768c0 23.564 19.103 42.667 42.667 42.667v0h597.333c23.564 0 42.667-19.103 42.667-42.667v0-128h-85.333v85.333h-512v-682.667h512v85.333h85.333v-128c0-23.564-19.103-42.667-42.667-42.667v0h-597.333zM768 277.333v128h-298.667v85.333h298.667v128l213.333-170.667-213.333-170.667z" />
<glyph unicode="&#xe947;" glyph-name="error-warning-line" d="M512 21.333c-235.642 0-426.667 191.027-426.667 426.667 0 235.642 191.025 426.667 426.667 426.667 235.639 0 426.667-191.025 426.667-426.667 0-235.639-191.027-426.667-426.667-426.667zM512 106.667c188.514 0 341.333 152.819 341.333 341.333s-152.819 341.333-341.333 341.333c-188.513 0-341.333-152.82-341.333-341.333s152.82-341.333 341.333-341.333zM469.333 320h85.333v-85.333h-85.333v85.333zM469.333 661.333h85.333v-256h-85.333v256z" />
<glyph unicode="&#xe948;" glyph-name="map-pin-line" d="M512 68.288l211.187 211.191c116.638 116.634 116.638 305.74 0 422.377-116.634 116.637-305.74 116.637-422.377 0s-116.637-305.743 0-422.377l211.189-211.191zM512-52.39l-271.529 271.526c-149.961 149.965-149.961 393.098 0 543.060s393.095 149.961 543.060 0c149.961-149.961 149.961-393.095 0-543.060l-271.531-271.526zM512 405.333c47.13 0 85.333 38.204 85.333 85.333 0 47.128-38.204 85.333-85.333 85.333s-85.333-38.205-85.333-85.333c0-47.13 38.204-85.333 85.333-85.333zM512 320c-94.257 0-170.667 76.412-170.667 170.667 0 94.257 76.41 170.667 170.667 170.667 94.255 0 170.667-76.41 170.667-170.667 0-94.255-76.412-170.667-170.667-170.667z" />
<glyph unicode="&#xe949;" glyph-name="zoom-in-line" d="M769.323 251.017l182.729-182.729-60.339-60.339-182.729 182.729c-65.702-52.565-149.026-84.011-239.65-84.011-211.968 0-384 172.032-384 384s172.032 384 384 384c211.968 0 384-172.032 384-384 0-90.624-31.445-173.948-84.011-239.65zM683.721 282.675c52.173 53.769 84.279 127.113 84.279 207.991 0 165.013-133.653 298.667-298.667 298.667s-298.667-133.653-298.667-298.667c0-165.013 133.653-298.667 298.667-298.667 80.879 0 154.223 32.107 207.991 84.279l6.396 6.396zM426.667 533.333v128h85.333v-128h128v-85.333h-128v-128h-85.333v128h-128v85.333h128z" />
<glyph unicode="&#xe94a;" glyph-name="login-box-line" d="M170.667 320h85.333v-213.333h512v682.667h-512v-213.333h-85.333v256c0 23.564 19.103 42.667 42.667 42.667v0h597.333c23.564 0 42.667-19.103 42.667-42.667v0-768c0-23.564-19.103-42.667-42.667-42.667v0h-597.333c-23.564 0-42.667 19.103-42.667 42.667v0 256zM426.667 490.667v128l213.333-170.667-213.333-170.667v128h-341.333v85.333h341.333z" />
<glyph unicode="&#xe94b;" glyph-name="add-line" d="M469.333 490.667v256h85.333v-256h256v-85.333h-256v-256h-85.333v256h-256v85.333h256z" />
</font>
</defs>
</svg>
