<?xml version="1.0" standalone="no"?>
<!DOCTYPE svg PUBLIC "-//W3C//DTD SVG 1.1//EN" "http://www.w3.org/Graphics/SVG/1.1/DTD/svg11.dtd" >
<svg xmlns="http://www.w3.org/2000/svg">
<metadata>
<json>
<![CDATA[
{
	"fontFamily": "remixicon",
	"description": "Font generated by IcoMoon.",
	"majorVersion": 1,
	"minorVersion": 0,
	"version": "Version 1.0",
	"fontId": "remixicon",
	"psName": "remixicon",
	"subFamily": "Regular",
	"fullName": "remixicon"
}
]]>
</json>
</metadata>
<defs>
<font id="remixicon" horiz-adv-x="1024">
<font-face units-per-em="1024" ascent="960" descent="-64" />
<missing-glyph horiz-adv-x="1024" />
<glyph unicode="&#x20;" horiz-adv-x="512" d="" />
<glyph unicode="&#xe791;" glyph-name="caret-right" data-tags="caret-right" d="M384 768v-640l384 320z" />
<glyph unicode="&#xe900;" glyph-name="angle-down" data-tags="angle-down" d="M512 397.995l211.2 211.2 60.331-60.331-271.531-271.531-271.531 271.531 60.331 60.331z" />
<glyph unicode="&#xe901;" glyph-name="baidumap" data-tags="baidumap" d="M512 68.267l211.2 211.2c54.042 54.047 87.467 128.709 87.467 211.178 0 164.949-133.718 298.667-298.667 298.667s-298.667-133.718-298.667-298.667c0-82.469 33.425-157.132 87.467-211.179l211.2-211.2zM512-52.395l-271.531 271.531c-69.489 69.49-112.469 165.49-112.469 271.527 0 212.077 171.923 384 384 384s384-171.923 384-384c0-106.038-42.98-202.037-112.47-271.528l-271.53-271.53zM512 405.333c47.128 0 85.333 38.205 85.333 85.333s-38.205 85.333-85.333 85.333v0c-47.128 0-85.333-38.205-85.333-85.333s38.205-85.333 85.333-85.333v0zM512 320c-94.257 0-170.667 76.41-170.667 170.667s76.41 170.667 170.667 170.667v0c94.257 0 170.667-76.41 170.667-170.667s-76.41-170.667-170.667-170.667v0z" />
<glyph unicode="&#xe902;" glyph-name="bold" data-tags="bold" d="M341.333 490.667h192c58.91 0 106.667 47.756 106.667 106.667s-47.756 106.667-106.667 106.667v0h-192v-213.333zM768 298.667c0-106.039-85.961-192-192-192v0h-320v682.667h277.333c106.035-0.005 191.992-85.964 191.992-192 0-51.426-20.218-98.13-53.139-132.596l0.070 0.074c57.65-33.828 95.744-95.505 95.744-166.080 0-0.023 0-0.045 0-0.068v0.004zM341.333 405.333v-213.333h234.667c58.91 0 106.667 47.756 106.667 106.667s-47.756 106.667-106.667 106.667v0h-234.667z" />
<glyph unicode="&#xe903;" glyph-name="caret-down" data-tags="caret-down" d="M512 277.333l-256 256h512z" />
<glyph unicode="&#xe904;" glyph-name="checked" data-tags="checked" d="M426.667 312.661l392.192 392.235 60.373-60.331-452.565-452.565-271.531 271.531 60.331 60.331z" />
<glyph unicode="&#xe905;" glyph-name="clearhtml" data-tags="clearhtml" d="M705.536 279.467l90.453 90.539-135.723 135.765 150.827 150.827-90.453 90.496-150.869-150.827-135.765 135.765-90.539-90.496 362.069-362.069zM645.163 219.136l-362.027 362.027-120.661-120.661 362.027-362.027 120.661 120.661zM569.771 716.928l120.661 120.704c7.721 7.718 18.386 12.492 30.165 12.492s22.445-4.774 30.165-12.492l150.869-150.869c7.718-7.721 12.492-18.386 12.492-30.165s-4.774-22.445-12.492-30.165l-120.704-120.661 105.6-105.6c7.731-7.723 12.514-18.396 12.514-30.187s-4.782-22.464-12.513-30.186v0l-331.861-331.861c-7.721-7.718-18.386-12.492-30.165-12.492s-22.445 4.774-30.165 12.492l-422.4 422.4c-7.718 7.721-12.492 18.386-12.492 30.165s4.774 22.445 12.492 30.165l331.861 331.861c7.723 7.731 18.396 12.514 30.187 12.514s22.464-4.782 30.186-12.513v0l105.6-105.6z" />
<glyph unicode="&#xe906;" glyph-name="close" data-tags="close" d="M512 508.331l211.2 211.2 60.331-60.331-211.2-211.2 211.2-211.2-60.331-60.331-211.2 211.2-211.2-211.2-60.331 60.331 211.2 211.2-211.2 211.2 60.331 60.331z" />
<glyph unicode="&#xe907;" glyph-name="code" data-tags="code" d="M469.333 448l-301.696-301.696-60.331 60.331 241.365 241.365-241.365 241.365 60.331 60.288 301.696-301.653zM469.333 149.333h426.667v-85.333h-426.667v85.333z" />
<glyph unicode="&#xe908;" glyph-name="emoticons" data-tags="emoticons" d="M512 21.333c-235.648 0-426.667 191.019-426.667 426.667s191.019 426.667 426.667 426.667 426.667-191.019 426.667-426.667-191.019-426.667-426.667-426.667zM512 106.667c188.513 0 341.333 152.82 341.333 341.333s-152.82 341.333-341.333 341.333v0c-188.513 0-341.333-152.82-341.333-341.333s152.82-341.333 341.333-341.333v0zM341.333 405.333h341.333c0-94.257-76.41-170.667-170.667-170.667s-170.667 76.41-170.667 170.667v0zM341.333 490.667c-35.346 0-64 28.654-64 64s28.654 64 64 64v0c35.346 0 64-28.654 64-64s-28.654-64-64-64v0zM682.667 490.667c-35.346 0-64 28.654-64 64s28.654 64 64 64v0c35.346 0 64-28.654 64-64s-28.654-64-64-64v0z" />
<glyph unicode="&#xe909;" glyph-name="fontname" data-tags="fontname" d="M554.667 704v-640h-85.333v640h-256v85.333h597.333v-85.333z" />
<glyph unicode="&#xe90a;" glyph-name="fontsize" data-tags="fontsize" d="M426.667 704v-640h-85.333v640h-256v85.333h597.333v-85.333h-256zM768 362.667v-298.667h-85.333v298.667h-128v85.333h341.333v-85.333h-128z" />
<glyph unicode="&#xe90b;" glyph-name="forecolor" data-tags="forecolor" d="M650.496 362.667h-276.992l-68.267-170.667h-91.904l256 640h85.333l256-640h-91.904l-68.267 170.667zM616.363 448l-104.363 260.907-104.363-260.907h208.725zM128 106.667h768v-85.333h-768v85.333z" />
<glyph unicode="&#xe90c;" glyph-name="formatblock" data-tags="formatblock" d="M725.333 490.667v298.667h85.333v-725.333h-85.333v341.333h-426.667v-341.333h-85.333v725.333h85.333v-298.667z" />
<glyph unicode="&#xe90d;" glyph-name="fullscreen" data-tags="fullscreen" d="M853.333 832h85.333v-256h-85.333v170.667h-170.667v85.333h170.667zM170.667 832h170.667v-85.333h-170.667v-170.667h-85.333v256h85.333zM853.333 149.333v170.667h85.333v-256h-256v85.333h170.667zM170.667 149.333h170.667v-85.333h-256v256h85.333v-170.667z" />
<glyph unicode="&#xe90e;" glyph-name="hide" data-tags="hide" d="M256 618.667v42.667c0 141.385 114.615 256 256 256s256-114.615 256-256v0-42.667h85.333c23.564 0 42.667-19.103 42.667-42.667v0-512c0-23.564-19.103-42.667-42.667-42.667v0h-682.667c-23.564 0-42.667 19.103-42.667 42.667v0 512c0 23.564 19.103 42.667 42.667 42.667v0h85.333zM810.667 533.333h-597.333v-426.667h597.333v426.667zM469.333 288.768c-25.687 15.029-42.667 42.482-42.667 73.901 0 47.128 38.205 85.333 85.333 85.333s85.333-38.205 85.333-85.333c0-31.419-16.98-58.872-42.264-73.683l-0.403-0.218v-96.768h-85.333v96.768zM341.333 618.667h341.333v42.667c0 94.257-76.41 170.667-170.667 170.667s-170.667-76.41-170.667-170.667v0-42.667z" />
<glyph unicode="&#xe90f;" glyph-name="hide-edit" data-tags="hide-edit" d="M714.965 832l-85.333-85.333h-416.299v-597.333h597.333v416.299l85.333 85.333v-544.299c0-23.564-19.103-42.667-42.667-42.667v0h-682.667c-23.564 0-42.667 19.103-42.667 42.667v0 682.667c0 23.564 19.103 42.667 42.667 42.667v0h544.299zM874.027 870.4l60.373-60.416-392.192-392.192-60.245-0.128-0.085 60.459 392.149 392.277z" />
<glyph unicode="&#xe910;" glyph-name="hilitecolor" data-tags="hilitecolor" d="M170.667 832h682.667c23.564 0 42.667-19.103 42.667-42.667v0-682.667c0-23.564-19.103-42.667-42.667-42.667v0h-682.667c-23.564 0-42.667 19.103-42.667 42.667v0 682.667c0 23.564 19.103 42.667 42.667 42.667v0zM421.077 320h181.845l34.987-85.333h94.549l-177.792 426.667h-85.333l-177.792-426.667h94.592l34.987 85.333zM456.064 405.333l55.936 136.533 55.936-136.533h-111.829z" />
<glyph unicode="&#xe911;" glyph-name="hr" data-tags="hr" d="M85.333 490.667h85.333v-85.333h-85.333v85.333zM256 490.667h512v-85.333h-512v85.333zM853.333 490.667h85.333v-85.333h-85.333v85.333z" />
<glyph unicode="&#xe912;" glyph-name="image" data-tags="image" d="M205.995 64l-0.853-0.853-0.896 0.853h-76.587c-23.381 0.024-42.325 18.984-42.325 42.368v0 683.264c0.168 23.317 19.012 42.176 42.307 42.368h768.701c23.381 0 42.325-18.987 42.325-42.368v-683.264c-0.168-23.317-19.012-42.176-42.307-42.368h-690.365zM853.333 320v426.667h-682.667v-597.333l426.667 426.667 256-256zM853.333 199.339l-256 256-306.005-306.005h562.005v50.005zM341.333 490.667c-47.128 0-85.333 38.205-85.333 85.333s38.205 85.333 85.333 85.333v0c47.128 0 85.333-38.205 85.333-85.333s-38.205-85.333-85.333-85.333v0z" />
<glyph unicode="&#xe913;" glyph-name="indent" data-tags="indent" d="M128 789.333h768v-85.333h-768v85.333zM128 149.333h768v-85.333h-768v85.333zM469.333 362.667h426.667v-85.333h-426.667v85.333zM469.333 576h426.667v-85.333h-426.667v85.333zM298.667 426.667l-170.667-149.333v298.667l170.667-149.333z" />
<glyph unicode="&#xe914;" glyph-name="insertfile" data-tags="insertfile" d="M632.661 629.035l-241.323-241.365c-8.036-7.769-13.026-18.647-13.026-30.69 0-23.564 19.103-42.667 42.667-42.667 12.043 0 22.92 4.989 30.678 13.014l241.377 241.335c23.165 23.165 37.494 55.168 37.494 90.517 0 70.698-57.312 128.011-128.011 128.011-35.349 0-67.352-14.328-90.517-37.494l-241.365-241.365c-39.746-38.785-64.397-92.883-64.397-152.738 0-117.821 95.513-213.333 213.333-213.333 59.866 0 113.973 24.659 152.717 64.375l0.042 0.044 241.365 241.323 60.331-60.331-241.365-241.365c-54.051-54.051-128.721-87.482-211.2-87.482-164.957 0-298.682 133.724-298.682 298.682 0 82.479 33.431 157.149 87.482 211.2v0l241.408 241.323c38.324 37.052 90.598 59.885 148.205 59.885 117.821 0 213.333-95.513 213.333-213.333 0-57.607-22.833-109.881-59.943-148.265l0.058 0.060-241.323-241.451c-23.167-23.162-55.169-37.487-90.517-37.487-70.707 0-128.026 57.319-128.026 128.026 0 35.359 14.334 67.37 37.508 90.539l241.365 241.365 60.331-60.331z" />
<glyph unicode="&#xe915;" glyph-name="insertorderedlist" data-tags="insertorderedlist" d="M341.333 789.333h554.667v-85.333h-554.667v85.333zM213.333 832v-128h42.667v-42.667h-128v42.667h42.667v85.333h-42.667v42.667h85.333zM128 362.667v106.667h85.333v21.333h-85.333v42.667h128v-106.667h-85.333v-21.333h85.333v-42.667h-128zM213.333 128h-85.333v42.667h85.333v21.333h-85.333v42.667h128v-170.667h-128v42.667h85.333v21.333zM341.333 490.667h554.667v-85.333h-554.667v85.333zM341.333 192h554.667v-85.333h-554.667v85.333z" />
<glyph unicode="&#xe916;" glyph-name="insertunorderedlist" data-tags="insertunorderedlist" d="M341.333 789.333h554.667v-85.333h-554.667v85.333zM192 682.667c-35.346 0-64 28.654-64 64s28.654 64 64 64v0c35.346 0 64-28.654 64-64s-28.654-64-64-64v0zM192 384c-35.346 0-64 28.654-64 64s28.654 64 64 64v0c35.346 0 64-28.654 64-64s-28.654-64-64-64v0zM192 89.6c-35.346 0-64 28.654-64 64s28.654 64 64 64v0c35.346 0 64-28.654 64-64s-28.654-64-64-64v0zM341.333 490.667h554.667v-85.333h-554.667v85.333zM341.333 192h554.667v-85.333h-554.667v85.333z" />
<glyph unicode="&#xe917;" glyph-name="italic" data-tags="italic" d="M640 106.667h-341.333v85.333h124.885l90.283 512h-129.835v85.333h341.333v-85.333h-124.885l-90.283-512h129.835z" />
<glyph unicode="&#xe918;" glyph-name="justifycenter" data-tags="justifycenter" d="M128 789.333h768v-85.333h-768v85.333zM213.333 149.333h597.333v-85.333h-597.333v85.333zM128 362.667h768v-85.333h-768v85.333zM213.333 576h597.333v-85.333h-597.333v85.333z" />
<glyph unicode="&#xe919;" glyph-name="justifyfull" data-tags="justifyfull" d="M128 789.333h768v-85.333h-768v85.333zM128 149.333h768v-85.333h-768v85.333zM128 362.667h768v-85.333h-768v85.333zM128 576h768v-85.333h-768v85.333z" />
<glyph unicode="&#xe91a;" glyph-name="justifyleft" data-tags="justifyleft" d="M128 789.333h768v-85.333h-768v85.333zM128 149.333h597.333v-85.333h-597.333v85.333zM128 362.667h768v-85.333h-768v85.333zM128 576h597.333v-85.333h-597.333v85.333z" />
<glyph unicode="&#xe91b;" glyph-name="justifyright" data-tags="justifyright" d="M128 789.333h768v-85.333h-768v85.333zM298.667 149.333h597.333v-85.333h-597.333v85.333zM128 362.667h768v-85.333h-768v85.333zM298.667 576h597.333v-85.333h-597.333v85.333z" />
<glyph unicode="&#xe91c;" glyph-name="lineheight" data-tags="lineheight" d="M469.333 789.333h426.667v-85.333h-426.667v85.333zM256 661.333v-170.667h-85.333v170.667h-128l170.667 170.667 170.667-170.667h-128zM256 234.667h128l-170.667-170.667-170.667 170.667h128v170.667h85.333v-170.667zM469.333 192h426.667v-85.333h-426.667v85.333zM384 490.667h512v-85.333h-512v85.333z" />
<glyph unicode="&#xe91d;" glyph-name="link" data-tags="link" d="M783.531 297.131l-60.331 60.416 60.331 60.331c39.001 38.67 63.146 92.27 63.146 151.509 0 117.821-95.513 213.333-213.333 213.333-59.239 0-112.838-24.145-151.494-63.131l-60.346-60.388-60.373 60.331 60.416 60.331c54.051 54.051 128.721 87.482 211.2 87.482 164.957 0 298.682-133.724 298.682-298.682 0-82.479-33.431-157.149-87.482-211.2l-60.373-60.331zM662.869 176.469l-60.373-60.331c-54.051-54.051-128.721-87.482-211.2-87.482-164.957 0-298.682 133.724-298.682 298.682 0 82.479 33.431 157.149 87.482 211.2v0l60.373 60.331 60.331-60.416-60.331-60.331c-39.001-38.67-63.146-92.27-63.146-151.509 0-117.821 95.513-213.333 213.333-213.333 59.239 0 112.838 24.145 151.494 63.131l60.346 60.346 60.373-60.331zM632.661 629.035l60.373-60.373-301.696-301.653-60.373 60.331 301.696 301.653z" />
<glyph unicode="&#xe91e;" glyph-name="media" data-tags="media" d="M725.333 567.467l222.421 155.733c3.412 2.417 7.66 3.864 12.245 3.864 11.782 0 21.333-9.551 21.333-21.333 0-0.009 0-0.017 0-0.026v0.001-515.413c0-0.007 0-0.016 0-0.024 0-11.782-9.551-21.333-21.333-21.333-4.586 0-8.834 1.447-12.312 3.909l0.067-0.045-222.421 155.733v-179.2c0-23.564-19.103-42.667-42.667-42.667v0h-597.333c-23.564 0-42.667 19.103-42.667 42.667v0 597.333c0 23.564 19.103 42.667 42.667 42.667v0h597.333c23.564 0 42.667-19.103 42.667-42.667v0-179.2zM725.333 432.683l170.667-119.467v269.611l-170.667-119.467v-30.635zM128 704v-512h512v512h-512zM213.333 618.667h85.333v-85.333h-85.333v85.333z" />
<glyph unicode="&#xe91f;" glyph-name="multiimage" data-tags="multiimage" d="M853.333 405.333c-71.595 0-138.624-19.627-195.968-53.717 49.219-57.246 88.892-124.409 115.498-197.833l1.409-4.45h79.061v256zM682.837 149.333c-83.627 200.448-281.429 341.333-512.171 341.333v-341.333h512.171zM170.667 576c163.413 0 312.448-61.227 425.557-161.963 72.22 48.025 160.953 76.63 256.368 76.63 0.261 0 0.522 0 0.782-0.001h-0.041v341.333h43.008c23.381 0 42.325-18.987 42.325-42.368v-683.264c-0.168-23.317-19.012-42.176-42.307-42.368h-768.701c-23.381 0.024-42.325 18.984-42.325 42.368v0 683.264c0.168 23.317 19.012 42.176 42.307 42.368h128.359v85.333h85.333v-170.667h-170.667v-170.667zM768 917.333v-170.667h-341.333v85.333h256v85.333h85.333zM704 533.333c-35.346 0-64 28.654-64 64s28.654 64 64 64v0c35.346 0 64-28.654 64-64s-28.654-64-64-64v0z" />
<glyph unicode="&#xe920;" glyph-name="outdent" data-tags="outdent" d="M128 789.333h768v-85.333h-768v85.333zM128 149.333h768v-85.333h-768v85.333zM469.333 362.667h426.667v-85.333h-426.667v85.333zM469.333 576h426.667v-85.333h-426.667v85.333zM128 426.667l170.667 149.333v-298.667l-170.667 149.333z" />
<glyph unicode="&#xe921;" glyph-name="pagebreak" data-tags="pagebreak" d="M725.333 64v170.667h-426.667v-170.667h-85.333v213.333c0 23.564 19.103 42.667 42.667 42.667v0h512c23.564 0 42.667-19.103 42.667-42.667v0-213.333h-85.333zM298.667 832v-170.667h426.667v170.667h85.333v-213.333c0-23.564-19.103-42.667-42.667-42.667v0h-512c-23.564 0-42.667 19.103-42.667 42.667v0 213.333h85.333zM85.333 576l170.667-128-170.667-128v256zM938.667 576v-256l-170.667 128 170.667 128z" />
<glyph unicode="&#xe922;" glyph-name="preview" data-tags="preview" d="M512 832c230.059 0 421.461-165.547 461.611-384-40.107-218.453-231.552-384-461.611-384s-421.461 165.547-461.611 384c40.107 218.453 231.552 384 461.611 384zM512 149.333c181.829 0.041 334.137 126.382 373.971 296.065l0.515 2.602c-40.491 172.13-192.753 298.303-374.485 298.303s-333.994-126.173-373.967-295.697l-0.518-2.605c40.348-172.284 192.657-298.626 374.481-298.667h0.004zM512 256c-106.039 0-192 85.961-192 192s85.961 192 192 192v0c106.039 0 192-85.961 192-192s-85.961-192-192-192v0zM512 341.333c58.91 0 106.667 47.756 106.667 106.667s-47.756 106.667-106.667 106.667v0c-58.91 0-106.667-47.756-106.667-106.667s47.756-106.667 106.667-106.667v0z" />
<glyph unicode="&#xe923;" glyph-name="question-circle" data-tags="question-circle" d="M512 21.333c-235.648 0-426.667 191.019-426.667 426.667s191.019 426.667 426.667 426.667 426.667-191.019 426.667-426.667-191.019-426.667-426.667-426.667zM512 106.667c188.513 0 341.333 152.82 341.333 341.333s-152.82 341.333-341.333 341.333v0c-188.513 0-341.333-152.82-341.333-341.333s152.82-341.333 341.333-341.333v0zM469.333 320h85.333v-85.333h-85.333v85.333zM554.667 390.187v-27.52h-85.333v64c0 23.564 19.103 42.667 42.667 42.667v0c35.344 0.002 63.996 28.655 63.996 64s-28.654 64-64 64c-30.907 0-56.697-21.908-62.688-51.043l-0.071-0.413-83.712 16.768c14.159 68.95 74.346 120.070 146.473 120.070 82.498 0 149.376-66.878 149.376-149.376 0-67.284-44.486-124.178-105.649-142.874l-1.058-0.278z" />
<glyph unicode="&#xe924;" glyph-name="quickformat" data-tags="quickformat" d="M213.333 618.667v-512h597.333v512h-597.333zM213.333 704h597.333v85.333h-597.333v-85.333zM853.333 21.333h-682.667c-23.564 0-42.667 19.103-42.667 42.667v0 768c0 23.564 19.103 42.667 42.667 42.667v0h682.667c23.564 0 42.667-19.103 42.667-42.667v0-768c0-23.564-19.103-42.667-42.667-42.667v0zM298.667 533.333h170.667v-170.667h-170.667v170.667zM298.667 277.333h426.667v-85.333h-426.667v85.333zM554.667 490.667h170.667v-85.333h-170.667v85.333z" />
<glyph unicode="&#xe925;" glyph-name="quote-left" data-tags="quote-left" d="M195.541 220.971c-43.947 46.677-67.541 99.029-67.541 183.893 0 149.333 104.832 283.179 257.28 349.355l38.101-58.795c-142.293-76.971-170.112-176.853-181.205-239.829 22.912 11.861 52.907 16 82.304 13.269 76.971-7.125 137.643-70.315 137.643-148.864 0-82.475-66.859-149.333-149.333-149.333v0c-45.781 0-89.557 20.907-117.248 50.304zM622.208 220.971c-43.947 46.677-67.541 99.029-67.541 183.893 0 149.333 104.832 283.179 257.28 349.355l38.101-58.795c-142.293-76.971-170.112-176.853-181.205-239.829 22.912 11.861 52.907 16 82.304 13.269 76.971-7.125 137.643-70.315 137.643-148.864 0-82.475-66.859-149.333-149.333-149.333v0c-45.781 0-89.557 20.907-117.248 50.304z" />
<glyph unicode="&#xe926;" glyph-name="quote-right" data-tags="quote-right" d="M828.459 675.029c43.947-46.677 67.541-99.029 67.541-183.893 0-149.333-104.832-283.179-257.28-349.355l-38.101 58.795c142.293 76.971 170.112 176.853 181.205 239.829-22.912-11.861-52.907-16-82.304-13.269-76.971 7.125-137.643 70.315-137.643 148.864 0 82.475 66.859 149.333 149.333 149.333v0c45.781 0 89.557-20.907 117.248-50.304zM401.792 675.029c43.947-46.677 67.541-99.029 67.541-183.893 0-149.333-104.832-283.179-257.28-349.355l-38.101 58.795c142.293 76.971 170.112 176.853 181.205 239.829-22.912-11.861-52.907-16-82.304-13.269-76.971 7.125-137.6 70.315-137.6 148.864 0 82.475 66.859 149.333 149.333 149.333v0c45.781 0 89.557-20.907 117.248-50.304z" />
<glyph unicode="&#xe927;" glyph-name="removeformat" data-tags="removeformat" d="M539.776 359.893l-44.629-253.227h-86.656l57.6 326.869-316.16 316.16 60.416 60.331 663.68-663.68-60.331-60.331-273.92 273.92zM502.315 638.72l11.52 65.28h-76.8l-85.333 85.333h501.632v-85.333h-252.885l-24.448-138.965-73.685 73.685z" />
<glyph unicode="&#xe928;" glyph-name="selectall" data-tags="selectall" d="M298.667 661.333v170.667c0 23.564 19.103 42.667 42.667 42.667v0h554.667c23.564 0 42.667-19.103 42.667-42.667v0-554.667c0-23.564-19.103-42.667-42.667-42.667v0h-170.667v-170.368c0-23.723-19.157-42.965-42.965-42.965h-554.069c-0.013 0-0.028 0-0.043 0-23.706 0-42.923 19.217-42.923 42.923 0 0.015 0 0.030 0 0.045v-0.002l0.128 554.069c0 23.723 19.157 42.965 42.965 42.965h170.24zM384 661.333h298.368c23.723 0 42.965-19.157 42.965-42.965v-298.368h128v469.333h-469.333v-128zM640 576h-469.205l-0.128-469.333h469.333v469.333zM362.795 192l-150.869 150.869 60.331 60.331 90.539-90.539 180.992 181.035 60.331-60.331-241.323-241.365z" />
<glyph unicode="&#xe929;" glyph-name="source" data-tags="source" d="M1024 448l-241.365-241.365-60.331 60.331 181.035 181.035-181.035 181.035 60.331 60.331 241.365-241.365zM120.661 448l181.035-181.035-60.331-60.331-241.365 241.365 241.365 241.365 60.288-60.331-180.992-181.035zM417.621 64h-90.795l279.552 768h90.795l-279.552-768z" />
<glyph unicode="&#xe92a;" glyph-name="strikethrough" data-tags="strikethrough" d="M731.904 362.667c9.813-22.016 14.763-46.507 14.763-73.387 0-57.259-22.357-102.059-67.029-134.272-44.757-32.213-106.496-48.341-185.301-48.341-69.973 0-139.221 16.256-207.787 48.811v96.256c64.853-37.419 131.2-56.149 199.083-56.149 108.843 0 163.413 31.232 163.797 93.739 0.009 0.498 0.015 1.086 0.015 1.674 0 26.061-10.572 49.652-27.662 66.719l-0.001 0.001-5.12 4.992h-488.661v85.333h768v-85.333h-164.096zM557.909 490.667h-232.405c-7.428 6.789-14.153 14.069-20.229 21.88l-0.294 0.392c-18.432 23.808-27.648 52.565-27.648 86.443 0 52.736 19.883 97.579 59.605 134.528 39.808 36.949 101.291 55.424 184.533 55.424 62.763 0 122.837-13.995 180.139-41.984v-91.819c-51.2 29.312-107.307 43.947-168.363 43.947-105.813 0-158.677-33.365-158.677-100.096 0-17.92 9.301-33.536 27.904-46.891s41.557-23.979 68.821-32c26.453-7.68 55.339-17.664 86.613-29.824z" />
<glyph unicode="&#xe92b;" glyph-name="subscript" data-tags="subscript" d="M238.763 789.333l209.237-252.928 209.237 252.928h110.763l-264.619-319.872 264.619-320.128h-110.507l-209.493 253.184-209.493-253.184h-110.507v0.256l264.619 319.872-264.619 319.872h110.763zM919.467 252.587c6.553 6.232 10.629 15.016 10.629 24.752 0 18.851-15.282 34.133-34.133 34.133s-34.133-15.282-34.133-34.133c0-3.345 0.481-6.578 1.378-9.633l-0.061 0.241-49.28-14.080c-2.080 7.018-3.276 15.081-3.276 23.424 0 47.152 38.224 85.376 85.376 85.376 0.012 0 0.024 0 0.035 0h-0.002c47.123-0.007 85.322-38.209 85.322-85.333 0-24.421-10.258-46.445-26.7-62l-0.040-0.037-69.504-65.963h96.256v-42.667h-170.667v42.667l108.8 103.253z" />
<glyph unicode="&#xe92c;" glyph-name="superscript" data-tags="superscript" d="M238.763 746.667l209.237-252.928 209.237 252.928h110.763l-264.619-319.872 264.619-320.128h-110.507l-209.493 253.184-209.493-253.184h-110.507v0.256l264.619 319.872-264.619 319.872h110.763zM919.467 679.253c6.553 6.232 10.629 15.016 10.629 24.752 0 18.851-15.282 34.133-34.133 34.133s-34.133-15.282-34.133-34.133c0-3.345 0.481-6.578 1.378-9.633l-0.061 0.241-49.28-14.080c-2.080 7.018-3.276 15.081-3.276 23.424 0 47.152 38.224 85.376 85.376 85.376 0.012 0 0.024 0 0.035 0h-0.002c47.123-0.007 85.322-38.209 85.322-85.333 0-24.421-10.258-46.445-26.7-62l-0.040-0.037-69.504-65.963h96.256v-42.667h-170.667v42.667l108.8 103.253z" />
<glyph unicode="&#xe92d;" glyph-name="table" data-tags="table" d="M554.667 533.333v-170.667h256v170.667h-256zM469.333 533.333h-256v-170.667h256v170.667zM554.667 149.333h256v128h-256v-128zM469.333 149.333v128h-256v-128h256zM554.667 746.667v-128h256v128h-256zM469.333 746.667h-256v-128h256v128zM170.667 832h682.667c23.564 0 42.667-19.103 42.667-42.667v0-682.667c0-23.564-19.103-42.667-42.667-42.667v0h-682.667c-23.564 0-42.667 19.103-42.667 42.667v0 682.667c0 23.564 19.103 42.667 42.667 42.667v0z" />
<glyph unicode="&#xe92e;" glyph-name="tablecellprop" data-tags="tablecellprop" d="M746.667 854.443l234.667-406.443-234.667-406.443h-469.333l-234.667 406.443 234.667 406.443h469.333zM697.387 769.109h-370.773l-185.429-321.109 185.429-321.109h370.773l185.429 321.109-185.429 321.109zM368.384 611.413l73.899 42.667 213.333-369.493-73.899-42.667-213.333 369.493z" />
<glyph unicode="&#xe92f;" glyph-name="tablecoldelete" data-tags="tablecoldelete" d="M512 832c23.552 0 42.667-19.115 42.667-42.667v-341.333c35.627 26.795 79.957 42.667 128 42.667 117.803 0 213.333-95.531 213.333-213.333s-95.531-213.333-213.333-213.333c-44.032 0-84.907 13.355-118.912 36.181l-9.088 6.485c0-23.552-19.115-42.667-42.667-42.667h-256c-23.552 0-42.667 19.115-42.667 42.667v682.667c0 23.552 19.115 42.667 42.667 42.667h256zM469.333 746.667h-170.667v-597.333h170.667v597.333zM810.667 320h-256v-85.333h256v85.333z" />
<glyph unicode="&#xe930;" glyph-name="tablecolinsertleft" data-tags="tablecolinsertleft" d="M853.333 832c23.552 0 42.667-19.115 42.667-42.667v-682.667c0-23.552-19.115-42.667-42.667-42.667h-256c-23.552 0-42.667 19.115-42.667 42.667v682.667c0 23.552 19.115 42.667 42.667 42.667h256zM810.667 746.667h-170.667v-597.333h170.667v597.333zM256 661.333c117.803 0 213.333-95.531 213.333-213.333s-95.531-213.333-213.333-213.333-213.333 95.531-213.333 213.333 95.531 213.333 213.333 213.333zM298.667 576h-85.333v-85.291l-85.333-0.043v-85.333l85.333 0.043v-85.376h85.333v85.376l85.333-0.043v85.333l-85.333 0.043v85.291z" />
<glyph unicode="&#xe931;" glyph-name="tablecolinsertright" data-tags="tablecolinsertright" d="M426.667 832c23.552 0 42.667-19.115 42.667-42.667v-682.667c0-23.552-19.115-42.667-42.667-42.667h-256c-23.552 0-42.667 19.115-42.667 42.667v682.667c0 23.552 19.115 42.667 42.667 42.667h256zM384 746.667h-170.667v-597.333h170.667v597.333zM768 661.333c117.803 0 213.333-95.531 213.333-213.333s-95.531-213.333-213.333-213.333-213.333 95.531-213.333 213.333 95.531 213.333 213.333 213.333zM810.667 576h-85.333v-85.291l-85.333-0.043v-85.333l85.333 0.043v-85.376h85.333v85.376l85.333-0.043v85.333l-85.333 0.043v85.291z" />
<glyph unicode="&#xe932;" glyph-name="tablecolmerge" data-tags="tablecolmerge" d="M853.333 832c23.552 0 42.667-19.115 42.667-42.667v-682.667c0-23.552-19.115-42.667-42.667-42.667h-682.667c-23.552 0-42.667 19.115-42.667 42.667v682.667c0 23.552 19.115 42.667 42.667 42.667h682.667zM469.333 746.667h-256v-255.957h85.333v85.291l128-128-128-128v85.333h-85.333v-256h256v85.333h85.333v-85.333h256v256h-85.333v-85.333l-128 128 128 128v-85.291h85.333v255.957h-256v-85.333h-85.333v85.333zM554.667 405.333v-85.333h-85.333v85.333h85.333zM554.667 576v-85.333h-85.333v85.333h85.333z" />
<glyph unicode="&#xe933;" glyph-name="tablecolsplit" data-tags="tablecolsplit" d="M853.333 832c23.552 0 42.667-19.115 42.667-42.667v-682.667c0-23.552-19.115-42.667-42.667-42.667h-682.667c-23.552 0-42.667 19.115-42.667 42.667v682.667c0 23.552 19.115 42.667 42.667 42.667h682.667zM469.333 746.667h-256v-597.333h256v170.667h85.333v-170.667h256v597.333h-256v-170.667h-85.333v170.667zM640 576l128-128-128-128v85.333h-256v-85.333l-128 128 128 128v-85.333h256v85.333z" />
<glyph unicode="&#xe934;" glyph-name="tabledelete" data-tags="tabledelete" d="M170.667 832h682.667c23.564 0 42.667-19.103 42.667-42.667v0-682.667c0-23.564-19.103-42.667-42.667-42.667v0h-682.667c-23.564 0-42.667 19.103-42.667 42.667v0 682.667c0 23.564 19.103 42.667 42.667 42.667v0zM213.333 746.667v-597.333h597.333v597.333h-597.333zM298.667 490.667h426.667v-85.333h-426.667v85.333z" />
<glyph unicode="&#xe935;" glyph-name="tableinsert" data-tags="tableinsert" d="M170.667 832h682.667c23.564 0 42.667-19.103 42.667-42.667v0-682.667c0-23.564-19.103-42.667-42.667-42.667v0h-682.667c-23.564 0-42.667 19.103-42.667 42.667v0 682.667c0 23.564 19.103 42.667 42.667 42.667v0zM213.333 746.667v-597.333h597.333v597.333h-597.333zM469.333 490.667v170.667h85.333v-170.667h170.667v-85.333h-170.667v-170.667h-85.333v170.667h-170.667v85.333h170.667z" />
<glyph unicode="&#xe936;" glyph-name="tableprop" data-tags="tableprop" d="M512 917.333l405.333-234.667v-469.333l-405.333-234.667-405.333 234.667v469.333l405.333 234.667zM512 818.731l-320-185.259v-370.944l320-185.259 320 185.259v370.944l-320 185.259zM512 277.333c-94.257 0-170.667 76.41-170.667 170.667s76.41 170.667 170.667 170.667v0c94.257 0 170.667-76.41 170.667-170.667s-76.41-170.667-170.667-170.667v0zM512 362.667c47.128 0 85.333 38.205 85.333 85.333s-38.205 85.333-85.333 85.333v0c-47.128 0-85.333-38.205-85.333-85.333s38.205-85.333 85.333-85.333v0z" />
<glyph unicode="&#xe937;" glyph-name="tablerowdelete" data-tags="tablerowdelete" d="M853.333 746.667c23.552 0 42.667-19.115 42.667-42.667v-256c0-23.552-19.115-42.667-42.667-42.667 26.795-35.627 42.667-79.957 42.667-128 0-117.803-95.531-213.333-213.333-213.333s-213.333 95.531-213.333 213.333c0 48.043 15.872 92.373 42.667 128h-341.333c-23.552 0-42.667 19.115-42.667 42.667v256c0 23.552 19.115 42.667 42.667 42.667h682.667zM554.667 320v-85.333h256v85.333h-256zM810.667 661.333h-597.333v-170.667h597.333v170.667z" />
<glyph unicode="&#xe938;" glyph-name="tablerowinsertabove" data-tags="tablerowinsertabove" d="M853.333 405.333c23.552 0 42.667-19.115 42.667-42.667v-256c0-23.552-19.115-42.667-42.667-42.667h-682.667c-23.552 0-42.667 19.115-42.667 42.667v256c0 23.552 19.115 42.667 42.667 42.667h682.667zM810.667 320h-597.333v-170.667h597.333v170.667zM512 917.333c117.803 0 213.333-95.531 213.333-213.333s-95.531-213.333-213.333-213.333-213.333 95.531-213.333 213.333 95.531 213.333 213.333 213.333zM554.667 832h-85.333v-85.291l-85.333-0.043v-85.333l85.333 0.043v-85.376h85.333v85.376l85.333-0.043v85.333l-85.333 0.043v85.291z" />
<glyph unicode="&#xe939;" glyph-name="tablerowinsertbelow" data-tags="tablerowinsertbelow" d="M512 405.333c117.803 0 213.333-95.531 213.333-213.333s-95.531-213.333-213.333-213.333-213.333 95.531-213.333 213.333 95.531 213.333 213.333 213.333zM554.667 320h-85.333v-85.291l-85.333-0.043v-85.333l85.333 0.043v-85.376h85.333v85.376l85.333-0.043v85.333l-85.333 0.043v85.291zM853.333 832c23.552 0 42.667-19.115 42.667-42.667v-256c0-23.552-19.115-42.667-42.667-42.667h-682.667c-23.552 0-42.667 19.115-42.667 42.667v256c0 23.552 19.115 42.667 42.667 42.667h682.667zM213.333 746.667v-170.667h597.333v170.667h-597.333z" />
<glyph unicode="&#xe93a;" glyph-name="tablerowmerge" data-tags="tablerowmerge" d="M896 106.667c0-23.552-19.115-42.667-42.667-42.667h-682.667c-23.552 0-42.667 19.115-42.667 42.667v682.667c0 23.552 19.115 42.667 42.667 42.667h682.667c23.552 0 42.667-19.115 42.667-42.667v-682.667zM810.667 490.667v256h-255.957v-85.333h85.291l-128-128-128 128h85.333v85.333h-256v-256h85.333v-85.333h-85.333v-256h256v85.333h-85.333l128 128 128-128h-85.291v-85.333h255.957v256h-85.333v85.333h85.333zM469.333 405.333h-85.333v85.333h85.333v-85.333zM640 405.333h-85.333v85.333h85.333v-85.333z" />
<glyph unicode="&#xe93b;" glyph-name="tablerowsplit" data-tags="tablerowsplit" d="M853.333 832c23.552 0 42.667-19.115 42.667-42.667v-682.667c0-23.552-19.115-42.667-42.667-42.667h-682.667c-23.552 0-42.667 19.115-42.667 42.667v682.667c0 23.552 19.115 42.667 42.667 42.667h682.667zM810.667 746.667h-597.333v-255.957l170.667-0.043v-85.333h-170.667v-256h597.333v256h-170.667v85.333l170.667 0.043v255.957zM512 704l128-128h-85.333v-256h85.333l-128-128-128 128h85.333v256h-85.333l128 128z" />
<glyph unicode="&#xe93c;" glyph-name="template" data-tags="template" d="M128 64c-23.564 0-42.667 19.103-42.667 42.667v0 682.667c0 23.564 19.103 42.667 42.667 42.667v0h768c23.564 0 42.667-19.103 42.667-42.667v0-682.667c0-23.564-19.103-42.667-42.667-42.667v0h-768zM298.667 533.333h-128v-384h128v384zM853.333 533.333h-469.333v-384h469.333v384zM853.333 746.667h-682.667v-128h682.667v128z" />
<glyph unicode="&#xe93d;" glyph-name="underline" data-tags="underline" d="M341.333 832v-384c0-94.257 76.41-170.667 170.667-170.667s170.667 76.41 170.667 170.667v0 384h85.333v-384c0-141.385-114.615-256-256-256s-256 114.615-256 256v0 384h85.333zM170.667 106.667h682.667v-85.333h-682.667v85.333z" />
<glyph unicode="&#xe93e;" glyph-name="unlink" data-tags="unlink" d="M725.333 234.667h213.333v-85.333h-128v-128h-85.333v213.333zM298.667 661.333h-213.333v85.333h128v128h85.333v-213.333zM783.531 297.131l-60.331 60.416 60.331 60.331c39.001 38.67 63.146 92.27 63.146 151.509 0 117.821-95.513 213.333-213.333 213.333-59.239 0-112.838-24.145-151.494-63.131l-60.346-60.388-60.373 60.331 60.416 60.331c54.051 54.051 128.721 87.482 211.2 87.482 164.957 0 298.682-133.724 298.682-298.682 0-82.479-33.431-157.149-87.482-211.2l-60.373-60.331zM662.869 176.469l-60.373-60.331c-54.051-54.051-128.721-87.482-211.2-87.482-164.957 0-298.682 133.724-298.682 298.682 0 82.479 33.431 157.149 87.482 211.2v0l60.373 60.331 60.331-60.416-60.331-60.331c-39.001-38.67-63.146-92.27-63.146-151.509 0-117.821 95.513-213.333 213.333-213.333 59.239 0 112.838 24.145 151.494 63.131l60.346 60.346 60.373-60.331zM632.661 629.035l60.373-60.373-301.696-301.653-60.373 60.331 301.696 301.653z" />
<glyph unicode="&#xe93f;" glyph-name="rightBottomCorner" data-tags="rightBottomCorner" d="M960 0h-896l896 896z" />
<glyph unicode="&#xe940;" glyph-name="sort" data-tags="sort" horiz-adv-x="640" d="M82 384h476c42.8 0 64.2-51.8 34-82l-238-238c-18.8-18.8-49.2-18.8-67.8 0l-238.2 238c-30.2 30.2-8.8 82 34 82zM592 594l-238 238c-18.8 18.8-49.2 18.8-67.8 0l-238.2-238c-30.2-30.2-8.8-82 34-82h476c42.8 0 64.2 51.8 34 82z" />
<glyph unicode="&#xe941;" glyph-name="code-edit" data-tags="code-edit" d="M714.965 832l-85.333-85.333h-416.299v-597.333h597.333v416.299l85.333 85.333v-544.299c0-23.564-19.103-42.667-42.667-42.667v0h-682.667c-23.564 0-42.667 19.103-42.667 42.667v0 682.667c0 23.564 19.103 42.667 42.667 42.667v0h544.299zM874.027 870.4l60.373-60.416-392.192-392.192-60.245-0.128-0.085 60.459 392.149 392.277z" />
</font>
</defs>
</svg>
