<?xml version="1.0" standalone="no"?>
<!DOCTYPE svg PUBLIC "-//W3C//DTD SVG 1.1//EN" "http://www.w3.org/Graphics/SVG/1.1/DTD/svg11.dtd" >
<svg xmlns="http://www.w3.org/2000/svg">
<metadata>
<json>
<![CDATA[
{
	"fontFamily": "fontawesome",
	"description": "Font generated by IcoMoon.",
	"majorVersion": 1,
	"minorVersion": 0,
	"version": "Version 1.0",
	"fontId": "fontawesome",
	"psName": "fontawesome",
	"subFamily": "Regular",
	"fullName": "fontawesome"
}
]]>
</json>
</metadata>
<defs>
<font id="fontawesome" horiz-adv-x="1024">
<font-face units-per-em="1024" ascent="960" descent="-64" />
<missing-glyph horiz-adv-x="1024" />
<glyph unicode="&#x20;" horiz-adv-x="512" d="" />
<glyph unicode="&#xe900;" glyph-name="justifycenter" data-tags="justifycenter" horiz-adv-x="896" d="M864 640h-832c-17.673 0-32-14.327-32-32v0-64c0-17.673 14.327-32 32-32v0h832c17.673 0 32 14.327 32 32v0 64c0 17.673-14.327 32-32 32v0zM864 128h-832c-17.673 0-32-14.327-32-32v0-64c0-17.673 14.327-32 32-32v0h832c17.673 0 32 14.327 32 32v0 64c0 17.673-14.327 32-32 32v0zM216.2 768h463.62c13.354 0 24.18 10.826 24.18 24.18 0 0.007 0 0.014 0 0.021v-0.001 79.62c0 13.354-10.826 24.18-24.18 24.18v0h-463.62c-0.006 0-0.013 0-0.020 0-13.354 0-24.18-10.826-24.18-24.18v0-79.62c0-13.365 10.835-24.2 24.2-24.2v0zM679.82 256c13.354 0 24.18 10.826 24.18 24.18 0 0.007 0 0.014 0 0.021v-0.001 79.62c0 13.354-10.826 24.18-24.18 24.18v0h-463.62c-0.006 0-0.013 0-0.020 0-13.354 0-24.18-10.826-24.18-24.18v0-79.62c0-13.365 10.835-24.2 24.2-24.2v0z" />
<glyph unicode="&#xe901;" glyph-name="justifyfull" data-tags="justifyfull" horiz-adv-x="896" d="M864 128h-832c-17.673 0-32-14.327-32-32v0-64c0-17.673 14.327-32 32-32v0h832c17.673 0 32 14.327 32 32v0 64c0 17.673-14.327 32-32 32v0zM864 384h-832c-17.673 0-32-14.327-32-32v0-64c0-17.673 14.327-32 32-32v0h832c17.673 0 32 14.327 32 32v0 64c0 17.673-14.327 32-32 32v0zM864 640h-832c-17.673 0-32-14.327-32-32v0-64c0-17.673 14.327-32 32-32v0h832c17.673 0 32 14.327 32 32v0 64c0 17.673-14.327 32-32 32v0zM864 896h-832c-17.673 0-32-14.327-32-32v0-64c0-17.673 14.327-32 32-32v0h832c17.673 0 32 14.327 32 32v0 64c0 17.673-14.327 32-32 32v0z" />
<glyph unicode="&#xe902;" glyph-name="justifyleft" data-tags="justifyleft" horiz-adv-x="896" d="M25.66 256h524.68c0.006 0 0.013 0 0.020 0 14.161 0 25.64 11.479 25.64 25.64 0 0.007 0 0.014 0 0.021v-0.001 76.68c0 0.006 0 0.013 0 0.020 0 14.161-11.479 25.64-25.64 25.64-0.007 0-0.014 0-0.021 0h-524.679c-0.006 0-0.013 0-0.020 0-14.161 0-25.64-11.479-25.64-25.64 0-0.007 0-0.014 0-0.021v0.001-76.68c0-0.006 0-0.013 0-0.020 0-14.161 11.479-25.64 25.64-25.64 0.007 0 0.014 0 0.021 0h-0.001zM25.66 768h524.68c0.006 0 0.013 0 0.020 0 14.161 0 25.64 11.479 25.64 25.64 0 0.007 0 0.014 0 0.021v-0.001 76.68c0 0.006 0 0.013 0 0.020 0 14.161-11.479 25.64-25.64 25.64-0.007 0-0.014 0-0.021 0h-524.679c-0.006 0-0.013 0-0.020 0-14.161 0-25.64-11.479-25.64-25.64 0-0.007 0-0.014 0-0.021v0.001-76.68c0-0.006 0-0.013 0-0.020 0-14.161 11.479-25.64 25.64-25.64 0.007 0 0.014 0 0.021 0h-0.001zM864 640h-832c-17.673 0-32-14.327-32-32v0-64c0-17.673 14.327-32 32-32v0h832c17.673 0 32 14.327 32 32v0 64c0 17.673-14.327 32-32 32v0zM864 128h-832c-17.673 0-32-14.327-32-32v0-64c0-17.673 14.327-32 32-32v0h832c17.673 0 32 14.327 32 32v0 64c0 17.673-14.327 32-32 32v0z" />
<glyph unicode="&#xe903;" glyph-name="justifyright" data-tags="justifyright" horiz-adv-x="896" d="M32 512h832c17.673 0 32 14.327 32 32v0 64c0 17.673-14.327 32-32 32v0h-832c-17.673 0-32-14.327-32-32v0-64c0-17.673 14.327-32 32-32v0zM864 128h-832c-17.673 0-32-14.327-32-32v0-64c0-17.673 14.327-32 32-32v0h832c17.673 0 32 14.327 32 32v0 64c0 17.673-14.327 32-32 32v0zM870.34 896h-524.68c-0.006 0-0.013 0-0.020 0-14.161 0-25.64-11.479-25.64-25.64 0-0.007 0-0.014 0-0.021v0.001-76.68c0-0.006 0-0.013 0-0.020 0-14.161 11.479-25.64 25.64-25.64 0.007 0 0.014 0 0.021 0h524.679c0.006 0 0.013 0 0.020 0 14.161 0 25.64 11.479 25.64 25.64 0 0.007 0 0.014 0 0.021v-0.001 76.68c0 0.006 0 0.013 0 0.020 0 14.161-11.479 25.64-25.64 25.64-0.007 0-0.014 0-0.021 0h0.001zM870.34 384h-524.68c-0.006 0-0.013 0-0.020 0-14.161 0-25.64-11.479-25.64-25.64 0-0.007 0-0.014 0-0.021v0.001-76.68c0-0.006 0-0.013 0-0.020 0-14.161 11.479-25.64 25.64-25.64 0.007 0 0.014 0 0.021 0h524.679c0.006 0 0.013 0 0.020 0 14.161 0 25.64 11.479 25.64 25.64 0 0.007 0 0.014 0 0.021v-0.001 76.68c0 0.006 0 0.013 0 0.020 0 14.161-11.479 25.64-25.64 25.64-0.007 0-0.014 0-0.021 0h0.001z" />
<glyph unicode="&#xe904;" glyph-name="angle-down" data-tags="angle-down" horiz-adv-x="640" d="M286 255.4l-272 272c-18.8 18.8-18.8 49.2 0 67.8l45.2 45.2c18.8 18.8 49.2 18.8 67.8 0l192.8-192.8 192.8 192.8c18.8 18.8 49.2 18.8 67.8 0l45.2-45.2c18.8-18.8 18.8-49.2 0-67.8l-272-272c-18.4-18.8-48.8-18.8-67.6 0z" />
<glyph unicode="&#xe905;" glyph-name="indent" data-tags="indent" horiz-adv-x="896" d="M54.62 233.4l192 192c5.786 5.79 9.365 13.787 9.365 22.62s-3.579 16.83-9.365 22.62l-192 192c-20.080 20.040-54.62 5.8-54.62-22.64v-384c0-28.62 34.66-42.6 54.62-22.6zM864 128h-832c-17.673 0-32-14.327-32-32v0-64c0-17.673 14.327-32 32-32v0h832c17.673 0 32 14.327 32 32v0 64c0 17.673-14.327 32-32 32v0zM870.34 384h-460.68c-0.006 0-0.013 0-0.020 0-14.161 0-25.64-11.479-25.64-25.64 0-0.007 0-0.014 0-0.021v0.001-76.68c0-0.006 0-0.013 0-0.020 0-14.161 11.479-25.64 25.64-25.64 0.007 0 0.014 0 0.021 0h460.679c0.006 0 0.013 0 0.020 0 14.161 0 25.64 11.479 25.64 25.64 0 0.007 0 0.014 0 0.021v-0.001 76.68c0 0.006 0 0.013 0 0.020 0 14.161-11.479 25.64-25.64 25.64-0.007 0-0.014 0-0.021 0h0.001zM870.34 640h-460.68c-0.006 0-0.013 0-0.020 0-14.161 0-25.64-11.479-25.64-25.64 0-0.007 0-0.014 0-0.021v0.001-76.68c0-0.006 0-0.013 0-0.020 0-14.161 11.479-25.64 25.64-25.64 0.007 0 0.014 0 0.021 0h460.679c0.006 0 0.013 0 0.020 0 14.161 0 25.64 11.479 25.64 25.64 0 0.007 0 0.014 0 0.021v-0.001 76.68c0 0.006 0 0.013 0 0.020 0 14.161-11.479 25.64-25.64 25.64-0.007 0-0.014 0-0.021 0h0.001zM864 896h-832c-17.673 0-32-14.327-32-32v0-64c0-17.673 14.327-32 32-32v0h832c17.673 0 32 14.327 32 32v0 64c0 17.673-14.327 32-32 32v0z" />
<glyph unicode="&#xe906;" glyph-name="caret-down" data-tags="caret-down" horiz-adv-x="640" d="M62.6 576h514.6c35.6 0 53.4-43 28.2-68.2l-257.2-257.4c-15.6-15.6-41-15.6-56.6 0l-257.2 257.4c-25.2 25.2-7.4 68.2 28.2 68.2z" />
<glyph unicode="&#xe907;" glyph-name="source" data-tags="source" horiz-adv-x="1280" d="M557.8-63l-122 35.4c-12.8 3.6-20 17-16.4 29.8l273 940.4c3.6 12.8 17 20 29.8 16.4l122-35.4c12.8-3.6 20-17 16.4-29.8l-273-940.4c-3.8-12.8-17-20.2-29.8-16.4zM329.8 161.4l87 92.8c9.2 9.8 8.6 25.4-1.6 34.4l-181.2 159.4 181.2 159.4c10.2 9 11 24.6 1.6 34.4l-87 92.8c-9 9.6-24.2 10.2-34 1l-288.2-270c-10.2-9.4-10.2-25.6 0-35l288.2-270.2c9.8-9.2 25-8.8 34 1zM984.2 160.2l288.2 270.2c10.2 9.4 10.2 25.6 0 35l-288.2 270.4c-9.6 9-24.8 8.6-34-1l-87-92.8c-9.2-9.8-8.6-25.4 1.6-34.4l181.2-159.6-181.2-159.4c-10.2-9-11-24.6-1.6-34.4l87-92.8c9-9.8 24.2-10.2 34-1.2z" />
<glyph unicode="&#xe908;" glyph-name="removeformat" data-tags="removeformat" d="M995.882 412.118c37.49 37.49 37.49 98.274 0 135.764l-320 320c-37.49 37.49-98.272 37.492-135.766 0l-512-512c-37.49-37.49-37.49-98.274 0-135.764l192-192c17.373-17.372 41.374-28.118 67.884-28.118h712c13.254 0 24 10.746 24 24v80c0 13.254-10.746 24-24 24h-288.234l284.116 284.118zM390.628 537.372l274.746-274.746-134.628-134.626h-229.49l-160 160 249.372 249.372z" />
<glyph unicode="&#xe909;" glyph-name="fullscreen" data-tags="fullscreen" horiz-adv-x="896" d="M896 272v-224c0-0.036 0-0.078 0-0.12 0-26.443-21.437-47.88-47.88-47.88-0.042 0-0.084 0-0.127 0h-223.993c-42.78 0-64.18 51.8-34 82l72.4 72.4-214.4 214.4-214.46-214.6 72.46-72.2c30.18-30.2 8.78-82-34-82h-224c-0.036 0-0.078 0-0.12 0-26.443 0-47.88 21.437-47.88 47.88 0 0.042 0 0.084 0 0.127v-0.007 224c0 42.8 51.78 64.2 82 34l72.38-72.4 214.54 214.4-214.56 214.6-72.36-72.6c-30.2-30.2-82-8.8-82 34v224c0 0.036 0 0.078 0 0.12 0 26.443 21.437 47.88 47.88 47.88 0.042 0 0.084 0 0.127 0h223.993c42.78 0 64.18-51.8 34-82l-72.4-72.4 214.4-214.4 214.46 214.6-72.46 72.2c-30.18 30.2-8.78 82 34 82h224c0.036 0 0.078 0 0.12 0 26.443 0 47.88-21.437 47.88-47.88 0-0.042 0-0.084 0-0.127v0.007-224c0-42.8-51.78-64.2-82-34l-72.38 72.4-214.54-214.4 214.56-214.6 72.36 72.4c30.2 30.4 82 9 82-33.8z" />
<glyph unicode="&#xe90a;" glyph-name="insertorderedlist" data-tags="insertorderedlist" d="M123.54 158l35 40.3c6.317 7.021 10.18 16.359 10.18 26.599 0 0.626-0.014 1.249-0.043 1.869l0.003-0.088v6.62c0 14.7-7.68 22.7-22.68 22.7h-114c-8.837 0-16-7.163-16-16v0-32c0-8.837 7.163-16 16-16v0h45.66c-7.566-7.62-14.76-15.645-21.534-24.024l-0.466-0.596-11.22-14c-8-10.14-10.5-20.26-5.6-29.76l2.1-3.86c6-11.52 12.58-15.76 24.5-15.76h9.46c20.66 0 31.88-4.88 31.88-18.18 0-9.44-8.4-16.44-28.72-16.44-11.179 0.091-21.8 2.376-31.487 6.444l0.547-0.204c-12.98 7.76-23.48 7-31.2-6.24l-11.18-18.62c-7.44-12.26-6.38-23.44 5.26-31.88 15.42-9.38 40.76-18.88 74-18.88 68.32 0 97 45.5 97 88.24-0.060 28.76-18.24 59.52-57.46 69.76zM992 512h-640c-17.673 0-32-14.327-32-32v0-64c0-17.673 14.327-32 32-32v0h640c17.673 0 32 14.327 32 32v0 64c0 17.673-14.327 32-32 32v0zM992 832h-640c-17.673 0-32-14.327-32-32v0-64c0-17.673 14.327-32 32-32v0h640c17.673 0 32 14.327 32 32v0 64c0 17.673-14.327 32-32 32v0zM992 192h-640c-17.673 0-32-14.327-32-32v0-64c0-17.673 14.327-32 32-32v0h640c17.673 0 32 14.327 32 32v0 64c0 17.673-14.327 32-32 32v0zM32 640h128c8.837 0 16 7.163 16 16v0 32c0 8.837-7.163 16-16 16v0h-32v176c0 8.837-7.163 16-16 16v0h-48c-6.215-0.011-11.598-3.565-14.238-8.749l-0.042-0.091-16-32c-1.066-2.086-1.691-4.55-1.691-7.16 0-8.827 7.147-15.984 15.97-16h16.002v-128h-32c-8.837 0-16-7.163-16-16v0-32c0-8.837 7.163-16 16-16v0zM24.18 320h135.82c8.837 0 16 7.163 16 16v0 32c0 8.837-7.163 16-16 16v0h-77.36c6.58 20.58 96.68 37.36 96.68 112.88 0 58.12-50 79.12-88.94 79.12-42.72 0-67.6-20-80.92-37.5-8.74-11.18-6-21.68 5.6-30.74l17.16-13.76c11.22-9.12 22-4.94 32.24 4.88 4.844 4.749 11.486 7.68 18.812 7.68 0.038 0 0.076 0 0.114 0h-0.006c6.66 0 18.56-3.12 18.56-17.5 0.060-25.44-101.94-43.68-101.94-138.24v-8c0-14.82 10.16-22.82 24.18-22.82z" />
<glyph unicode="&#xe90b;" glyph-name="insertunorderedlist" data-tags="insertunorderedlist" d="M96 864c-53.019 0-96-42.981-96-96s42.981-96 96-96c53.019 0 96 42.981 96 96v0c0 53.019-42.981 96-96 96v0zM96 544c-53.019 0-96-42.981-96-96s42.981-96 96-96c53.019 0 96 42.981 96 96v0c0 53.019-42.981 96-96 96v0zM96 224c-53.019 0-96-42.981-96-96s42.981-96 96-96c53.019 0 96 42.981 96 96v0c0 53.019-42.981 96-96 96v0zM992 192h-640c-17.673 0-32-14.327-32-32v0-64c0-17.673 14.327-32 32-32v0h640c17.673 0 32 14.327 32 32v0 64c0 17.673-14.327 32-32 32v0zM992 832h-640c-17.673 0-32-14.327-32-32v0-64c0-17.673 14.327-32 32-32v0h640c17.673 0 32 14.327 32 32v0 64c0 17.673-14.327 32-32 32v0zM992 512h-640c-17.673 0-32-14.327-32-32v0-64c0-17.673 14.327-32 32-32v0h640c17.673 0 32 14.327 32 32v0 64c0 17.673-14.327 32-32 32v0z" />
<glyph unicode="&#xe90c;" glyph-name="baidumap" data-tags="baidumap" horiz-adv-x="768" d="M344.536-43.34c-290.596 421.278-344.536 464.514-344.536 619.34 0 212.078 171.922 384 384 384s384-171.922 384-384c0-154.826-53.94-198.062-344.536-619.34-19.070-27.548-59.86-27.546-78.928 0zM384 416c88.366 0 160 71.634 160 160s-71.634 160-160 160-160-71.634-160-160 71.634-160 160-160z" />
<glyph unicode="&#xe90d;" glyph-name="question-circle" data-tags="question-circle" d="M1008 448c0-273.994-222.086-496-496-496s-496 222.006-496 496c0 273.834 222.086 496 496 496s496-222.166 496-496zM525.31 780c-108.994 0-178.51-45.914-233.098-127.516-7.072-10.572-4.706-24.83 5.43-32.516l69.398-52.62c10.41-7.894 25.242-6.016 33.33 4.244 35.728 45.316 60.226 71.594 114.606 71.594 40.858 0 91.396-26.296 91.396-65.916 0-29.952-24.726-45.334-65.068-67.952-47.048-26.374-109.304-59.2-109.304-141.318v-8c0-13.254 10.746-24 24-24h112c13.254 0 24 10.746 24 24v2.666c0 56.924 166.372 59.294 166.372 213.334 0 116.004-120.33 204-233.062 204zM512 284c-50.73 0-92-41.27-92-92 0-50.728 41.27-92 92-92s92 41.272 92 92c0 50.73-41.27 92-92 92z" />
<glyph unicode="&#xe90e;" glyph-name="quote-left" data-tags="quote-left" d="M928 448h-160v128c0 70.6 57.4 128 128 128h16c26.6 0 48 21.4 48 48v96c0 26.6-21.4 48-48 48h-16c-176.8 0-320-143.2-320-320v-480c0-53 43-96 96-96h256c53 0 96 43 96 96v256c0 53-43 96-96 96zM352 448h-160v128c0 70.6 57.4 128 128 128h16c26.6 0 48 21.4 48 48v96c0 26.6-21.4 48-48 48h-16c-176.8 0-320-143.2-320-320v-480c0-53 43-96 96-96h256c53 0 96 43 96 96v256c0 53-43 96-96 96z" />
<glyph unicode="&#xe90f;" glyph-name="quote-right" data-tags="quote-right" d="M928 896h-256c-53 0-96-43-96-96v-256c0-53 43-96 96-96h160v-128c0-70.6-57.4-128-128-128h-16c-26.6 0-48-21.4-48-48v-96c0-26.6 21.4-48 48-48h16c176.8 0 320 143.2 320 320v480c0 53-43 96-96 96zM352 896h-256c-53 0-96-43-96-96v-256c0-53 43-96 96-96h160v-128c0-70.6-57.4-128-128-128h-16c-26.6 0-48-21.4-48-48v-96c0-26.6 21.4-48 48-48h16c176.8 0 320 143.2 320 320v480c0 53-43 96-96 96z" />
<glyph unicode="&#xe910;" glyph-name="subscript" data-tags="subscript" d="M992 64h-32v288c0 17.673-14.327 32-32 32v0h-96c-12.435-0.011-23.208-7.112-28.496-17.479l-0.084-0.181-32-64c-2.139-4.177-3.393-9.112-3.393-14.34 0-17.664 14.311-31.985 31.971-32h32.002v-192h-32c-17.673 0-32-14.327-32-32v0-64c0-17.673 14.327-32 32-32v0h192c17.673 0 32 14.327 32 32v0 64c0 17.673-14.327 32-32 32v0zM672 832h-134c0 0-0.001 0-0.001 0-10.841 0-20.422-5.391-26.211-13.638l-0.068-0.102-159.8-230-159.8 230c-5.826 8.307-15.339 13.685-26.111 13.74h-134.009c-17.673 0-32-14.327-32-32v0-96c0-17.673 14.327-32 32-32v0h66.96l155.62-224-155.62-224h-66.96c-17.673 0-32-14.327-32-32v0-96c0-17.673 14.327-32 32-32v0h134c0 0 0.001 0 0.001 0 10.841 0 20.422 5.391 26.211 13.638l0.068 0.102 159.8 230 159.8-230c5.826-8.307 15.339-13.685 26.111-13.74h134.009c17.673 0 32 14.327 32 32v0 96c0 17.673-14.327 32-32 32v0h-66.96l-155.62 224 155.62 224h66.96c17.673 0 32 14.327 32 32v0 96c0 17.673-14.327 32-32 32v0z" />
<glyph unicode="&#xe911;" glyph-name="superscript" data-tags="superscript" d="M992 640h-32v288c0 17.673-14.327 32-32 32v0h-96c-12.435-0.011-23.208-7.112-28.496-17.479l-0.084-0.181-32-64c-2.139-4.177-3.393-9.112-3.393-14.34 0-17.664 14.311-31.985 31.971-32h32.002v-192h-32c-17.673 0-32-14.327-32-32v0-64c0-17.673 14.327-32 32-32v0h192c17.673 0 32 14.327 32 32v0 64c0 17.673-14.327 32-32 32v0zM672 832h-134c0 0-0.001 0-0.001 0-10.841 0-20.422-5.391-26.211-13.638l-0.068-0.102-159.8-230-159.8 230c-5.826 8.307-15.339 13.685-26.111 13.74h-134.009c-17.673 0-32-14.327-32-32v0-96c0-17.673 14.327-32 32-32v0h66.96l155.62-224-155.62-224h-66.96c-17.673 0-32-14.327-32-32v0-96c0-17.673 14.327-32 32-32v0h134c0 0 0.001 0 0.001 0 10.841 0 20.422 5.391 26.211 13.638l0.068 0.102 159.8 230 159.8-230c5.826-8.307 15.339-13.685 26.111-13.74h134.009c17.673 0 32 14.327 32 32v0 96c0 17.673-14.327 32-32 32v0h-66.96l-155.62 224 155.62 224h66.96c17.673 0 32 14.327 32 32v0 96c0 17.673-14.327 32-32 32v0z" />
<glyph unicode="&#xe912;" glyph-name="underline" data-tags="underline" horiz-adv-x="896" d="M64 832h64v-320c0-176.44 143.56-320 320-320s320 143.56 320 320v320h64c17.673 0 32 14.327 32 32v0 64c0 17.673-14.327 32-32 32v0h-288c-17.673 0-32-14.327-32-32v0-64c0-17.673 14.327-32 32-32v0h64v-320c0-88.366-71.634-160-160-160s-160 71.634-160 160v0 320h64c17.673 0 32 14.327 32 32v0 64c0 17.673-14.327 32-32 32v0h-288c-17.673 0-32-14.327-32-32v0-64c0-17.673 14.327-32 32-32v0zM864 64h-832c-17.673 0-32-14.327-32-32v0-64c0-17.673 14.327-32 32-32v0h832c17.673 0 32 14.327 32 32v0 64c0 17.673-14.327 32-32 32v0z" />
<glyph unicode="&#xe913;" glyph-name="selectall" data-tags="selectall" d="M930.909 122.182h-651.636c-51.413 0-93.091 41.678-93.091 93.091v0 651.636c0 51.413 41.678 93.091 93.091 93.091v0h651.636c51.413 0 93.091-41.678 93.091-93.091v0-651.636c0-51.413-41.678-93.091-93.091-93.091v0zM816.407 746.543l-263.447-263.308-118.225 117.993-65.629-65.815 117.76-118.039 66.095-65.815 65.629 65.815 263.447 263.354zM791.273-64h-698.182c-51.413 0-93.091 41.678-93.091 93.091v0 656.291c13.845-2.692 29.903-4.374 46.302-4.651l0.243-0.003h46.545v-583.913c0-0.028 0-0.060 0-0.093 0-37.302 30.2-67.551 67.483-67.63h609.753c7.596 0.251 14.759 1.801 21.373 4.432l-0.428-0.15v-97.373z" />
<glyph unicode="&#xe914;" glyph-name="bold" data-tags="bold" horiz-adv-x="768" d="M666.98 484c29.349 35.636 48.888 80.359 53.914 129.381l0.086 1.039c14.76 152.6-104.98 281.58-254.14 281.58h-398.84c-17.673 0-32-14.327-32-32v0-96c0-17.673 14.327-32 32-32v0h63.74v-576h-63.74c-17.673 0-32-14.327-32-32v0-96c0-17.673 14.327-32 32-32v0h418.64c141.6 0 268.28 103.5 282 244.8 9.48 96.9-32.78 184.12-101.66 239.2zM291.32 736h175.52c53.019 0 96-42.981 96-96s-42.981-96-96-96v0h-175.52zM466.84 160h-175.52v224h175.52c61.856 0 112-50.144 112-112s-50.144-112-112-112v0z" />
<glyph unicode="&#xe915;" glyph-name="clearhtml" data-tags="clearhtml" horiz-adv-x="1280" d="M512.94 526.46l173.46-218.36s-33.2-204.72-153.14-300.24c-119.94-95.56-533.26-68.24-533.26-68.24s7.6 46.28 22 110.86l189.24 224.34c7.94 9.4-1.74 23.24-13.3 19l-120.8-44.18c28.88 83.32 65.44 160.080 109.2 194.94 119.94 95.52 326.6 81.88 326.6 81.88zM1273.060 897.94l-39.72 50c-10.98 13.8-31.040 16.1-44.82 5.12l-464.96-355.6-68.28 85.94c-10.18 12.82-30.28 10.42-37.18-4.42l-50.66-109.1 173.46-218.36 117.6 24.9c16 3.38 22.84 22.4 12.68 35.2l-68.18 85.84 464.96 355.6c13.78 10.96 16.080 31.060 5.1 44.88z" />
<glyph unicode="&#xe916;" glyph-name="image" data-tags="image" d="M928 832h-832c-53.020 0-96-42.98-96-96v-576c0-53.020 42.98-96 96-96h832c53.020 0 96 42.98 96 96v576c0 53.020-42.98 96-96 96zM916 160h-808c-6.627 0-12 5.373-12 12v0 552c0 6.627 5.373 12 12 12v0h808c6.627 0 12-5.373 12-12v0-552c0-6.627-5.373-12-12-12v0zM256 656c-44.182 0-80-35.818-80-80s35.818-80 80-80 80 35.818 80 80-35.818 80-80 80zM192 256h640v160l-175.030 175.030c-9.372 9.372-24.568 9.372-33.942 0l-239.028-239.030-79.030 79.030c-9.372 9.372-24.568 9.372-33.942 0l-79.028-79.030v-96z" />
<glyph unicode="&#xe917;" glyph-name="multiimage" data-tags="multiimage" horiz-adv-x="1152" d="M960 128v-32c0-53.020-42.98-96-96-96h-768c-53.020 0-96 42.98-96 96v512c0 53.020 42.98 96 96 96h32v-96h-20c-6.627 0-12-5.373-12-12v0-488c0-6.627 5.373-12 12-12v0h744c6.627 0 12 5.373 12 12v0 20h96zM1044 800h-744c-6.627 0-12-5.373-12-12v0-488c0-6.627 5.373-12 12-12v0h744c6.627 0 12 5.373 12 12v0 488c0 6.627-5.373 12-12 12v0zM1056 896c53.020 0 96-42.98 96-96v-512c0-53.020-42.98-96-96-96h-768c-53.020 0-96 42.98-96 96v512c0 53.020 42.98 96 96 96h768zM528 672c0-44.182-35.818-80-80-80s-80 35.818-80 80 35.818 80 80 80 80-35.818 80-80zM384 480l79.030 79.030c9.372 9.372 24.568 9.372 33.942 0l79.028-79.030 207.030 207.030c9.372 9.372 24.568 9.372 33.942 0l143.028-143.030v-160h-576v96z" />
<glyph unicode="&#xe918;" glyph-name="italic" data-tags="italic" horiz-adv-x="640" d="M640 864v-64c0-17.673-14.327-32-32-32v0h-125.52l-160-640h93.52c17.673 0 32-14.327 32-32v0-64c0-17.673-14.327-32-32-32v0h-384c-17.673 0-32 14.327-32 32v0 64c0 17.673 14.327 32 32 32v0h125.52l160 640h-93.52c-17.673 0-32 14.327-32 32v0 64c0 17.673 14.327 32 32 32v0h384c17.673 0 32-14.327 32-32v0z" />
<glyph unicode="&#xe919;" glyph-name="hide" data-tags="hide" horiz-adv-x="896" d="M800 512h-48v144c0 167.6-136.4 304-304 304s-304-136.4-304-304v-144h-48c-53 0-96-43-96-96v-384c0-53 43-96 96-96h704c53 0 96 43 96 96v384c0 53-43 96-96 96zM592 512h-288v144c0 79.4 64.6 144 144 144s144-64.6 144-144v-144z" />
<glyph unicode="&#xe91a;" glyph-name="lineheight" data-tags="lineheight" d="M535.467 844.8h407.467c17.067 0 27.733-14.933 27.733-44.8s-10.667-44.8-27.733-44.8h-407.467c-17.067 0-27.733 14.933-27.733 44.8s10.667 44.8 27.733 44.8zM535.467 373.333h407.467c17.067 0 27.733-14.933 27.733-44.8s-10.667-44.8-27.733-44.8h-407.467c-17.067 0-27.733 14.933-27.733 44.8s10.667 44.8 27.733 44.8zM179.2 140.8h740.267c36.267 0 51.2-14.933 51.2-44.8s-17.067-44.8-51.2-44.8h-740.267c-34.133-2.133-51.2 12.8-51.2 42.667-2.133 29.867 17.067 46.933 51.2 46.933zM535.467 608h407.467c17.067 0 27.733-14.933 27.733-44.8s-10.667-44.8-27.733-44.8h-407.467c-17.067 0-27.733 14.933-27.733 44.8s10.667 44.8 27.733 44.8zM215.467 356.267v390.4c0 25.6 21.333 44.8 44.8 44.8 25.6 0 44.8-21.333 44.8-44.8v-392.533c0-25.6-21.333-44.8-44.8-44.8s-44.8 21.333-44.8 46.933zM260.267 232.533c-10.667 0-23.467 4.267-29.867 12.8l-2.133 2.133-155.733 179.2c-12.8 14.933-12.8 40.533 4.267 53.333 14.933 12.8 40.533 12.8 53.333-4.267l130.133-151.467 130.133 151.467c12.8 14.933 38.4 17.067 53.333 4.267s17.067-38.4 4.267-53.333l-155.733-181.333-2.133-2.133c-8.533-6.4-19.2-10.667-29.867-10.667zM418.133 608c-10.667 0-21.333 4.267-29.867 12.8l-130.133 151.467-130.133-151.467c-12.8-14.933-38.4-17.067-53.333-4.267s-17.067 38.4-4.267 53.333l155.733 181.333 2.133 2.133c17.067 17.067 44.8 17.067 61.867 0l2.133-2.133 155.733-181.333c12.8-14.933 12.8-40.533-4.267-53.333-6.4-6.4-17.067-8.533-25.6-8.533z" />
<glyph unicode="&#xe91b;" glyph-name="outdent" data-tags="outdent" horiz-adv-x="896" d="M201.38 233.42c20-20 54.62-5.86 54.62 22.62v383.96c0 28.64-34.66 42.62-54.62 22.62l-192-192c-5.786-5.79-9.365-13.787-9.365-22.62s3.579-16.83 9.365-22.62v0zM864 128h-832c-17.673 0-32-14.327-32-32v0-64c0-17.673 14.327-32 32-32v0h832c17.673 0 32 14.327 32 32v0 64c0 17.673-14.327 32-32 32v0zM870.34 384h-460.68c-0.006 0-0.013 0-0.020 0-14.161 0-25.64-11.479-25.64-25.64 0-0.007 0-0.014 0-0.021v0.001-76.68c0-0.006 0-0.013 0-0.020 0-14.161 11.479-25.64 25.64-25.64 0.007 0 0.014 0 0.021 0h460.679c0.006 0 0.013 0 0.020 0 14.161 0 25.64 11.479 25.64 25.64 0 0.007 0 0.014 0 0.021v-0.001 76.68c0 0.006 0 0.013 0 0.020 0 14.161-11.479 25.64-25.64 25.64-0.007 0-0.014 0-0.021 0h0.001zM870.34 640h-460.68c-0.006 0-0.013 0-0.020 0-14.161 0-25.64-11.479-25.64-25.64 0-0.007 0-0.014 0-0.021v0.001-76.68c0-0.006 0-0.013 0-0.020 0-14.161 11.479-25.64 25.64-25.64 0.007 0 0.014 0 0.021 0h460.679c0.006 0 0.013 0 0.020 0 14.161 0 25.64 11.479 25.64 25.64 0 0.007 0 0.014 0 0.021v-0.001 76.68c0 0.006 0 0.013 0 0.020 0 14.161-11.479 25.64-25.64 25.64-0.007 0-0.014 0-0.021 0h0.001zM864 896h-832c-17.673 0-32-14.327-32-32v0-64c0-17.673 14.327-32 32-32v0h832c17.673 0 32 14.327 32 32v0 64c0 17.673-14.327 32-32 32v0z" />
<glyph unicode="&#xe91c;" glyph-name="quickformat" data-tags="quickformat" d="M950.586 960h-511.854c-74.073-2.267-73.122-47.822-73.122-73.122v-146.244c0-25.3 8.19-66.175 73.122-73.122h511.854c71.733 2.34 73.049 39.705 73.122 64.932v154.434c-4.534 66.395-47.017 73.122-73.122 73.122zM950.586 740.634c-249.053 0.804-465.86 2.34-511.854 0 0 0 2.486 85.845 0 146.244 100.835 3.144 432.224 2.779 511.854 0-0.439-31.077 0-146.244 0-146.244zM219.366 960h-146.244c-71.806-2.267-70.855-31.881-73.122-73.122v-154.434c0-25.227 17.33-67.126 73.122-64.932h146.244c53.525-4.534 73.122 47.822 73.122 73.122v146.244c0 25.3-19.597 70.855-73.122 73.122zM219.366 740.634c-46.725-3.437-76.266-1.828-146.244 0v146.244c91.402 2.998 75.389 3.802 146.244 0v-146.244zM219.366 594.39h-146.244c-71.806-2.267-70.855-31.881-73.122-73.122v-154.36c0-25.3 17.33-67.199 73.122-65.005h146.244c53.525-4.534 73.122 47.822 73.122 73.122v146.244c0 25.3-19.597 70.855-73.122 73.122zM219.366 375.024c-46.725-3.437-76.266-1.755-146.244 0v146.244c91.402 2.998 75.389 3.802 146.244 0v-146.244zM950.586 594.39h-511.854c-74.073-2.267-73.122-47.822-73.122-73.122v-146.244c0-25.3 8.19-66.175 73.122-73.122h511.854c71.733 2.34 73.049 39.705 73.122 65.005v154.36c-4.534 66.395-47.017 73.122-73.122 73.122zM950.586 375.024c-249.053 0.804-465.86 2.34-511.854 0 0 0 2.486 85.845 0 146.244 100.835 3.144 432.224 2.779 511.854 0-0.439-31.077 0-146.244 0-146.244zM950.586 228.78h-511.854c-74.073-2.267-73.122-47.822-73.122-73.122v-146.244c0-25.3 8.19-66.175 73.122-73.122h511.854c71.733 2.34 73.049 39.705 73.122 65.005v154.36c-4.534 66.395-47.017 73.122-73.122 73.122zM950.586 9.414c-249.053 0.804-465.86 2.34-511.854 0 0 0 2.486 85.845 0 146.244 100.835 3.144 432.224 2.706 511.854 0-0.439-31.077 0-146.244 0-146.244zM219.366 228.78h-146.244c-71.806-2.267-70.855-31.881-73.122-73.122v-154.36c0-25.3 17.33-67.199 73.122-65.005h146.244c53.525-4.534 73.122 47.822 73.122 73.122v146.244c0 25.3-19.597 70.855-73.122 73.122zM219.366 9.414c-46.725-3.437-76.266-1.755-146.244 0v146.244c91.402 2.998 75.389 3.802 146.244 0v-146.244z" />
<glyph unicode="&#xe91d;" glyph-name="link" data-tags="link" d="M653.224 589.218c119.494-119.618 117.854-311.396 0.72-429.18-0.22-0.24-0.48-0.5-0.72-0.74l-134.4-134.4c-118.54-118.54-311.398-118.524-429.92 0-118.54 118.52-118.54 311.4 0 429.92l74.212 74.212c19.68 19.68 53.572 6.6 54.588-21.212 1.296-35.444 7.652-71.054 19.38-105.442 3.972-11.644 1.134-24.524-7.566-33.224l-26.174-26.174c-56.052-56.052-57.81-147.32-2.31-203.92 56.048-57.158 148.172-57.498 204.65-1.020l134.4 134.38c56.382 56.382 56.146 147.514 0 203.66-7.402 7.388-14.858 13.128-20.682 17.138-8.122 5.632-13.481 14.755-13.892 25.151l-0.002 0.061c-0.792 21.134 6.696 42.912 23.396 59.612l42.108 42.11c11.042 11.042 28.364 12.398 41.168 3.462 15.28-10.741 28.689-22.040 41.044-34.394v0zM935.094 871.102c-118.522 118.524-311.38 118.54-429.92 0l-134.4-134.4c-0.24-0.24-0.5-0.5-0.72-0.74-117.132-117.784-118.774-309.562 0.72-429.18 12.354-12.354 25.763-23.652 40.080-33.749l0.962-0.643c12.804-8.936 30.128-7.578 41.168 3.462l42.108 42.11c16.7 16.7 24.188 38.478 23.396 59.612-0.413 10.457-5.772 19.58-13.788 25.142l-0.106 0.070c-5.824 4.010-13.28 9.75-20.682 17.138-56.146 56.146-56.382 147.278 0 203.66l134.4 134.38c56.478 56.478 148.6 56.138 204.65-1.020 55.5-56.6 53.744-147.868-2.31-203.92l-26.174-26.174c-8.7-8.7-11.538-21.58-7.566-33.224 11.728-34.388 18.084-69.998 19.38-105.442 1.018-27.812 34.908-40.892 54.588-21.212l74.212 74.212c118.542 118.518 118.542 311.398 0.002 429.918z" />
<glyph unicode="&#xe91e;" glyph-name="unlink" data-tags="unlink" d="M608.166 148.186c9.372-9.372 9.372-24.568 0-33.942l-89.348-89.348c-118.526-118.524-311.386-118.532-429.922 0-118.528 118.53-118.528 311.392 0 429.92l89.35 89.35c9.372 9.372 24.568 9.372 33.942 0l79.196-79.196c9.372-9.372 9.372-24.568 0-33.942l-89.35-89.348c-56.144-56.146-56.144-147.5 0-203.646 56.144-56.144 147.5-56.146 203.648 0l89.348 89.348c9.372 9.372 24.568 9.372 33.942 0l79.194-79.196zM495.030 668.618c9.372-9.372 24.568-9.372 33.942 0l89.348 89.348c56.144 56.15 147.5 56.146 203.648 0 56.144-56.146 56.144-147.5 0-203.646l-89.35-89.348c-9.372-9.372-9.372-24.568 0-33.942l79.196-79.196c9.372-9.372 24.568-9.372 33.942 0l89.35 89.35c118.53 118.53 118.53 311.39 0 429.92-118.532 118.528-311.39 118.528-429.922 0l-89.348-89.348c-9.372-9.372-9.372-24.568 0-33.942l79.194-79.196zM964.686-49.942l45.254 45.254c18.746 18.746 18.746 49.138 0 67.882l-882.744 882.748c-18.746 18.746-49.138 18.746-67.882 0l-45.256-45.256c-18.746-18.746-18.746-49.138 0-67.882l882.746-882.746c18.746-18.744 49.138-18.744 67.882 0z" />
<glyph unicode="&#xe91f;" glyph-name="hr" data-tags="hr" horiz-adv-x="896" d="M832 544h-768c-35.34 0-64-28.66-64-64v-64c0-35.34 28.66-64 64-64h768c35.34 0 64 28.66 64 64v64c0 35.34-28.66 64-64 64z" />
<glyph unicode="&#xe920;" glyph-name="media" data-tags="media" horiz-adv-x="1152" d="M672.4 832h-576.8c-52.8 0-95.6-42.8-95.6-95.6v-576.8c0-52.8 42.8-95.6 95.6-95.6h576.8c52.8 0 95.6 42.8 95.6 95.6v576.8c0 52.8-42.8 95.6-95.6 95.6zM1051.2 756.6l-219.2-151.2v-314.8l219.2-151c42.4-29.2 100.8 0.6 100.8 51.6v513.8c0 50.8-58.2 80.8-100.8 51.6z" />
<glyph unicode="&#xe921;" glyph-name="formatblock" data-tags="formatblock" d="M896 768v-640h64c17.673 0 32-14.327 32-32v0-64c0-17.673-14.327-32-32-32v0h-320c-17.673 0-32 14.327-32 32v0 64c0 17.673 14.327 32 32 32v0h64v256h-384v-256h64c17.673 0 32-14.327 32-32v0-64c0-17.673-14.327-32-32-32v0h-320c-17.673 0-32 14.327-32 32v0 64c0 17.673 14.327 32 32 32v0h64v640h-64c-17.673 0-32 14.327-32 32v0 64c0 17.673 14.327 32 32 32v0h320c17.673 0 32-14.327 32-32v0-64c0-17.673-14.327-32-32-32v0h-64v-256h384v256h-64c-17.673 0-32 14.327-32 32v0 64c0 17.673 14.327 32 32 32v0h320c17.673 0 32-14.327 32-32v0-64c0-17.673-14.327-32-32-32v0z" />
<glyph unicode="&#xe922;" glyph-name="hilitecolor" data-tags="hilitecolor" d="M492.8 640h38.4l64-192h-166.4l64 192zM960 960c38.4 0 64-25.6 64-64v-896c0-38.4-25.6-64-64-64h-896c-38.4 0-64 25.6-64 64v896c0 38.4 25.6 64 64 64h896zM896 64v64l-51.2 19.2c-19.2 6.4-32 19.2-38.4 38.4l-185.6 582.4h-217.6l-185.6-576c-6.4-19.2-19.2-32-38.4-38.4l-51.2-25.6v-64h320v64l-102.4 32 44.8 160h249.6l44.8-160-108.8-32v-64h320z" />
<glyph unicode="&#xe923;" glyph-name="code" data-tags="code" horiz-adv-x="1280" d="M515.962 414.058l-388.686-388.686c-18.746-18.746-49.138-18.746-67.882 0l-45.336 45.334c-18.714 18.714-18.75 49.044-0.080 67.802l308.044 309.492-308.042 309.49c-18.67 18.758-18.634 49.088 0.080 67.802l45.334 45.334c18.746 18.746 49.138 18.746 67.882 0l388.686-388.686c18.746-18.744 18.746-49.136 0-67.882zM1280 48v64c0 26.51-21.49 48-48 48h-608c-26.51 0-48-21.49-48-48v-64c0-26.51 21.49-48 48-48h608c26.51 0 48 21.49 48 48z" />
<glyph unicode="&#xe924;" glyph-name="fontsize" data-tags="fontsize" horiz-adv-x="1152" d="M608 896h-576c-17.673 0-32-14.327-32-32v0-192c0-17.673 14.327-32 32-32v0h64c17.673 0 32 14.327 32 32v0 64h112v-608h-80c-17.673 0-32-14.327-32-32v0-64c0-17.673 14.327-32 32-32v0h320c17.673 0 32 14.327 32 32v0 64c0 17.673-14.327 32-32 32v0h-80v608h112v-64c0-17.673 14.327-32 32-32v0h64c17.673 0 32 14.327 32 32v0 192c0 17.673-14.327 32-32 32v0zM1120 224h-96v448h96c28.62 0 42.66 34.62 22.62 54.62l-160 160c-5.79 5.786-13.787 9.365-22.62 9.365s-16.83-3.579-22.62-9.365l-160-160c-18.66-18.62-8.66-54.62 22.62-54.62h96v-448h-96c-28.62 0-42.64-34.62-22.62-54.62l160-160c5.79-5.786 13.787-9.365 22.62-9.365s16.83 3.579 22.62 9.365l160 160c18.66 18.62 8.66 54.62-22.62 54.62z" />
<glyph unicode="&#xe925;" glyph-name="insertfile" data-tags="insertfile" horiz-adv-x="896" d="M86.492 27.716c-116.86 120.578-114.682 315.022 2.772 435.162l419.52 429.122c88.632 90.664 232.702 90.672 321.342 0 87.78-89.788 87.886-234.658 0-324.552l-365.698-373.704c-59.71-61.074-157.266-60.222-215.964 1.996-56.55 59.94-54.736 154.946 2.904 213.906l287.486 293.67c12.364 12.628 32.624 12.844 45.252 0.482l45.722-44.758c12.63-12.364 12.844-32.624 0.482-45.252l-287.456-293.642c-9.864-10.090-10.472-26.856-1.296-36.584 8.744-9.268 22.49-9.422 31.376-0.33l365.698 373.702c39.226 40.124 39.226 105.45-0.022 145.596-38.378 39.254-99.914 39.274-138.308 0l-419.522-429.12c-69.526-71.12-70.598-186.24-2.382-256.626 68.020-70.186 177.97-70.274 246.116-0.572l344.12 351.998c12.354 12.638 32.614 12.866 45.252 0.512l45.754-44.728c12.638-12.354 12.868-32.614 0.512-45.252l-344.12-351.996c-119.152-121.876-311.886-120.432-429.54 0.97z" />
<glyph unicode="&#xe926;" glyph-name="checked" data-tags="checked" d="M347.796 81.192l-332.8 332.8c-19.994 19.994-19.994 52.412 0 72.408l72.406 72.408c19.994 19.996 52.414 19.996 72.408 0l224.19-224.188 480.19 480.188c19.994 19.994 52.414 19.994 72.408 0l72.406-72.408c19.994-19.994 19.994-52.412 0-72.408l-588.8-588.802c-19.996-19.994-52.414-19.994-72.408 0.002z" />
<glyph unicode="&#xe927;" glyph-name="preview" data-tags="preview" horiz-adv-x="1152" d="M1145.040 477.2c-108.46 211.62-323.18 354.8-569.040 354.8s-460.64-143.28-569.040-354.82c-4.387-8.495-6.959-18.542-6.959-29.19s2.572-20.695 7.129-29.553l-0.17 0.363c108.46-211.62 323.18-354.8 569.040-354.8s460.64 143.28 569.040 354.82c4.387 8.495 6.959 18.542 6.959 29.19s-2.572 20.695-7.129 29.553l0.17-0.363zM576 160c-159.058 0-288 128.942-288 288s128.942 288 288 288c159.058 0 288-128.942 288-288v0c0-0.041 0-0.091 0-0.14 0-158.981-128.879-287.86-287.86-287.86-0.049 0-0.098 0-0.147 0h0.007zM576 640c-18.13-0.261-35.516-3.012-51.969-7.926l1.349 0.346c11.631-15.661 18.62-35.374 18.62-56.72 0-52.854-42.846-95.7-95.7-95.7-21.346 0-41.059 6.988-56.977 18.802l0.257-0.182c-4.247-15.047-6.689-32.328-6.689-50.179 0-105.796 85.764-191.56 191.56-191.56s191.56 85.764 191.56 191.56c0 105.796-85.764 191.56-191.56 191.56-0.159 0-0.317 0-0.476-0.001h0.025z" />
<glyph unicode="&#xe928;" glyph-name="template" data-tags="template" d="M43.52 665.6l409.6-176.64c58.88-30.72 110.080 0 110.080 0l414.72 174.080 2.56 2.56c10.24 5.12 15.36 15.36 15.36 28.16 0 15.36-10.24 28.16-23.040 30.72l-409.6 176.64c-56.32 23.040-97.28 0-97.28 0l-419.84-176.64c-12.8-5.12-20.48-17.92-20.48-30.72s7.68-23.040 17.92-28.16zM512 286.72c-2.56 0-7.68 0-10.24 2.56l-486.4 215.040c-12.8 5.12-17.92 20.48-12.8 33.28s20.48 17.92 33.28 12.8l476.16-209.92 476.16 209.92c12.8 5.12 28.16 0 33.28-12.8s0-28.16-12.8-33.28l-486.4-215.040c-2.56-2.56-7.68-2.56-10.24-2.56zM512 135.68c-2.56 0-7.68 0-10.24 2.56l-486.4 215.040c-12.8 5.12-17.92 20.48-12.8 33.28 5.12 10.24 20.48 17.92 33.28 10.24l476.16-207.36 476.16 207.36c12.8 5.12 28.16 0 33.28-12.8s0-28.16-12.8-33.28l-486.4-215.040h-10.24zM512-15.36c-2.56 0-7.68 0-10.24 2.56l-486.4 215.040c-12.8 5.12-17.92 20.48-12.8 33.28s20.48 17.92 33.28 12.8l476.16-209.92 476.16 209.92c12.8 5.12 28.16 0 33.28-12.8s0-28.16-12.8-33.28l-486.4-215.040c-2.56-2.56-7.68-2.56-10.24-2.56z" />
<glyph unicode="&#xe929;" glyph-name="forecolor" data-tags="forecolor" horiz-adv-x="896" d="M866 294.571h-46.82l-261.42 625.955c-8.847 21.98-32.623 37.473-60.587 37.473-0.004 0-0.009 0-0.013 0h-94.319c-0.004 0-0.008 0-0.013 0-27.965 0-51.74-15.493-60.451-37.085l-0.136-0.388-261.42-625.955h-46.82c-17.673 0-32-12.376-32-27.643v0-55.286c0-15.267 14.327-27.643 32-27.643v0h256c17.673 0 32 12.376 32 27.643v55.286c0 15.267-14.327 27.643-32 27.643v0h-39.16l46.6 110.571h305.12l46.6-110.571h-39.16c-17.673 0-32-12.376-32-27.643v0-55.286c0-15.267 14.327-27.643 32-27.643v0h256c17.673 0 32 12.376 32 27.643v55.286c0 15.267-14.327 27.643-32 27.643v0zM355.7 543.357l94.3 223.717 94.3-223.717h-188.6zM27 91.094h842c13.255 0 24-10.745 24-24v-106c0-13.255-10.745-24-24-24h-842c-13.255 0-24 10.745-24 24v106c0 13.255 10.745 24 24 24z" />
<glyph unicode="&#xe92a;" glyph-name="close" data-tags="close" horiz-adv-x="704" d="M485.44 448l200.14 200.14c24.56 24.56 24.56 64.38 0 88.96l-44.48 44.48c-24.56 24.56-64.38 24.56-88.96 0l-200.14-200.14-200.14 200.14c-24.56 24.56-64.38 24.56-88.96 0l-44.48-44.48c-24.56-24.56-24.56-64.38 0-88.96l200.14-200.14-200.14-200.14c-24.56-24.56-24.56-64.38 0-88.96l44.48-44.48c24.56-24.56 64.4-24.56 88.96 0l200.14 200.14 200.14-200.14c24.56-24.56 64.4-24.56 88.96 0l44.48 44.48c24.56 24.56 24.56 64.38 0 88.96l-200.14 200.14z" />
<glyph unicode="&#xe92b;" glyph-name="rightBottomCorner" data-tags="rightBottomCorner" d="M960 0h-896l896 896z" />
<glyph unicode="&#xe92c;" glyph-name="sort" data-tags="sort" horiz-adv-x="640" d="M82 384h476c42.8 0 64.2-51.8 34-82l-238-238c-18.8-18.8-49.2-18.8-67.8 0l-238.2 238c-30.2 30.2-8.8 82 34 82zM592 594l-238 238c-18.8 18.8-49.2 18.8-67.8 0l-238.2-238c-30.2-30.2-8.8-82 34-82h476c42.8 0 64.2 51.8 34 82z" />
<glyph unicode="&#xe92d;" glyph-name="tablecolsplit" data-tags="tablecolsplit" d="M998 772v-864h-972v864h972zM998 808h-972c-19.881 0-36-16.119-36-36v0-864c0-19.881 16.119-36 36-36v0h972c19.881 0 36 16.119 36 36v0 864c0 19.881-16.119 36-36 36v0zM26 448h972v-36h-972zM26 268h972v-36h-972zM26 88h972v-36h-972zM26 628h972v-36h-972zM278 772v-864h-36v864zM782 772v-864h-36v864zM278 790h468q18 0 18-18v-864q0-18-18-18h-468q-18 0-18 18v864q0 18 18 18zM746 772v-864h-468v864h468zM746 808h-468c-19.881 0-36-16.119-36-36v0-864c0-19.881 16.119-36 36-36v0h468c19.881 0 36 16.119 36 36v0 864c0 19.881-16.119 36-36 36v0zM746 934l-108 90v-180l108 90zM638 968.56v-69.12q0-1.44-1.44-1.44h-69.12q-1.44 0-1.44 1.44v69.12q0 1.44 1.44 1.44h69.12q1.44 0 1.44-1.44zM278 934l108 90v-180l-108 90zM458 968.56v-69.12q0-1.44-1.44-1.44h-69.12q-1.44 0-1.44 1.44v69.12q0 1.44 1.44 1.44h69.12q1.44 0 1.44-1.44zM530 772v-864h-36v864z" />
<glyph unicode="&#xe92e;" glyph-name="tablecoldelete" data-tags="tablecoldelete" d="M997.949 771.954v-863.956h-971.951v863.956h971.951zM997.949 807.952h-971.951c-19.88 0-35.998-16.118-35.998-35.998v-863.956c0-19.88 16.118-35.998 35.998-35.998v0h971.951c19.88 0 35.998 16.118 35.998 35.998v0 863.956c0 19.88-16.118 35.998-35.998 35.998v0zM25.998 447.976h971.951v-35.998h-971.951zM25.998 267.983h971.951v-35.998h-971.951zM25.998 87.991h971.951v-35.998h-971.951zM25.998 627.961h971.951v-35.998h-971.951zM277.988 771.954v-863.956h-35.998v863.956zM529.977 771.954v-863.956h-35.998v863.956zM781.959 771.954v-863.956h-35.998v863.956zM277.988 789.953h215.991q17.999 0 17.999-17.999v-863.956q0-17.999-17.999-17.999h-215.991q-17.999 0-17.999 17.999v863.956q0 17.999 17.999 17.999zM493.979 771.954v-863.956h-215.991v863.956h215.991zM493.979 807.952h-215.991c-19.88 0-35.998-16.118-35.998-35.998v-863.956c0-19.88 16.118-35.998 35.998-35.998v0h215.991c19.88 0 35.998 16.118 35.998 35.998v0 863.956c0 19.88-16.118 35.998-35.998 35.998v0zM439.981 843.951c-0.063-0.001-0.135-0.001-0.207-0.001-4.89 0-9.294 2.076-12.384 5.392l-0.008 0.009-143.994 143.994c-3.364 3.161-5.456 7.635-5.456 12.599s2.093 9.439 5.448 12.592l0.008 0.007c3.161 3.364 7.635 5.456 12.599 5.456s9.439-2.093 12.592-5.448l0.007-0.008 143.994-143.994c3.364-3.161 5.456-7.635 5.456-12.599s-2.093-9.439-5.448-12.592l-0.008-0.007c-3.098-3.325-7.502-5.401-12.392-5.401-0.072 0-0.145 0-0.217 0.001h0.010zM295.987 843.951c-0.063-0.001-0.135-0.001-0.207-0.001-4.89 0-9.294 2.076-12.384 5.392l-0.008 0.009c-3.364 3.161-5.456 7.635-5.456 12.599s2.093 9.439 5.448 12.592l0.008 0.007 143.994 143.994c3.161 3.364 7.635 5.456 12.599 5.456s9.439-2.093 12.592-5.448l0.007-0.008c3.364-3.161 5.456-7.635 5.456-12.599s-2.093-9.439-5.448-12.592l-0.008-0.007-143.994-143.994c-3.098-3.325-7.502-5.401-12.392-5.401-0.072 0-0.145 0-0.217 0.001h0.010z" />
<glyph unicode="&#xe92f;" glyph-name="tablerowinsertbelow" data-tags="tablerowinsertbelow" d="M993.090 133.82h-962.178c-5.4 0-9.82-4.42-9.82-9.82v-98.18c0-5.4 4.42-9.82 9.82-9.82h962.178c5.4 0 9.82 4.42 9.82 9.82v98.18c0 5.4-4.42 9.82-9.82 9.82zM962.040 880h-900.079c-22.58 0-40.87-17.55-40.87-39.27v-569.45c0-21.72 18.29-39.27 40.87-39.27h899.955c22.58 0 40.87 17.55 40.87 39.27v569.45c0.12 21.72-18.16 39.27-40.75 39.27zM325.459 320.36h-216v196.36h216v-196.36zM325.459 595.27h-216v196.36h216v-196.36zM620 320.36h-216v196.36h216v-196.36zM620 595.27h-216v196.36h216v-196.36zM914.54 320.36h-216v196.36h216v-196.36zM914.54 595.27h-216v196.36h216v-196.36z" />
<glyph unicode="&#xe930;" glyph-name="tablerowinsertabove" data-tags="tablerowinsertabove" d="M962.040 664h-900.079c-22.58 0-40.87-17.55-40.87-39.27v-569.45c0-21.72 18.29-39.27 40.87-39.27h899.955c22.58 0 40.87 17.55 40.87 39.27v569.45c0.12 21.72-18.16 39.27-40.75 39.27zM325.459 104.366h-216v196.36h216v-196.36zM325.459 379.27h-216v196.36h216v-196.36zM620 104.366h-216v196.36h216v-196.36zM620 379.27h-216v196.36h216v-196.36zM914.54 104.366h-216v196.36h216v-196.36zM914.54 379.27h-216v196.36h216v-196.36zM993.090 880h-962.178c-5.4 0-9.82-4.42-9.82-9.82v-98.18c0-5.4 4.42-9.82 9.82-9.82h962.178c5.4 0 9.82 4.42 9.82 9.82v98.18c0 5.4-4.42 9.82-9.82 9.82z" />
<glyph unicode="&#xe931;" glyph-name="tablecolinsertright" data-tags="tablecolinsertright" d="M924.8 928h-96c-5.28 0-9.6-4.32-9.6-9.6v-940.797c0-5.28 4.32-9.6 9.6-9.6h96c5.28 0 9.6 4.32 9.6 9.6v940.797c0 5.28-4.32 9.6-9.6 9.6zM684.8 928h-556.8c-21.24 0-38.4-17.88-38.4-39.96v-879.958c0-22.080 17.16-39.96 38.4-39.96h556.8c21.24 0 38.4 17.88 38.4 39.96v879.958c0 22.080-17.16 39.96-38.4 39.96zM368 54.4h-192v211.2h192v-211.2zM368 342.4h-192v211.2h192v-211.2zM368 630.4h-192v211.2h192v-211.2zM636.8 54.4h-192v211.2h192v-211.2zM636.8 342.4h-192v211.2h192v-211.2zM636.8 630.4h-192v211.2h192v-211.2z" />
<glyph unicode="&#xe932;" glyph-name="tablecolinsertleft" data-tags="tablecolinsertleft" d="M195.2 928h-96c-5.28 0-9.6-4.32-9.6-9.6v-940.797c0-5.28 4.32-9.6 9.6-9.6h96c5.28 0 9.6 4.32 9.6 9.6v940.797c0 5.28-4.32 9.6-9.6 9.6zM896 928h-556.8c-21.24 0-38.4-17.88-38.4-39.96v-879.958c0-22.080 17.16-39.96 38.4-39.96h556.8c21.24 0 38.4 17.88 38.4 39.96v879.958c0 22.080-17.16 39.96-38.4 39.96zM579.2 54.4h-192v211.2h192v-211.2zM579.2 342.4h-192v211.2h192v-211.2zM579.2 630.4h-192v211.2h192v-211.2zM848 54.4h-192v211.2h192v-211.2zM848 342.4h-192v211.2h192v-211.2zM848 630.4h-192v211.2h192v-211.2z" />
<glyph unicode="&#xe933;" glyph-name="tableprop" data-tags="tableprop" d="M25 935v-973.999h973.999v973.999h-973.999zM920.555 631.035h-223.015v225.525h223.015v-225.525zM396.19 340.14v221.165h231.625v-221.165h-231.625zM627.81 270.415v-230.97h-231.625v230.97h231.625zM326.46 340.14h-223.015v221.165h223.015v-221.165zM396.19 631.035v225.525h231.625v-225.525h-231.625zM697.54 561.305h223.015v-221.165h-223.015v221.165zM326.46 856.555v-225.525h-223.015v225.525h223.015zM103.445 270.415h223.015v-230.97h-223.015v230.97zM697.54 39.445v230.97h223.015v-230.97h-223.015z" />
<glyph unicode="&#xe934;" glyph-name="tablecellprop" data-tags="tablecellprop" d="M444.501 438.485h-374.699c-39.509 0-69.803 30.336-69.803 70.016v210.133c0 39.68 30.293 70.059 69.803 70.059h374.699c39.552 0 69.845-30.336 69.845-70.059v-210.133c0-39.68-32.597-70.016-69.845-70.016zM69.803 741.973c-12.858-0.073-23.253-10.513-23.253-23.381 0 0 0 0 0 0v0-210.133c0-13.995 9.301-23.339 23.253-23.339h374.699c13.952 0 23.296 9.387 23.296 23.339v210.176c0 14.037-9.344 23.381-23.296 23.381h-374.699zM116.352 648.619h279.296v-70.059h-279.296zM442.197 64.896h-372.395c-39.509 0-69.803 30.379-69.803 70.059v210.133c0 39.68 30.293 70.059 69.803 70.059h372.395c39.552 0 69.803-30.379 69.803-70.059v-210.133c0-39.68-30.293-70.059-69.803-70.059zM69.803 368.427c-13.952 0-23.253-9.344-23.253-23.339v-210.133c0-13.995 9.301-23.339 23.253-23.339h372.395c13.952 0 23.253 9.344 23.253 23.339v210.133c0 13.995-9.301 23.339-23.253 23.339h-372.395zM116.352 275.029h279.296v-70.016h-279.296zM954.197 64.896h-349.099c-39.552 0-69.845 30.379-69.845 70.059v583.68c0 39.68 30.293 70.059 69.845 70.059h349.099c39.552 0 69.803-30.336 69.803-70.059v-583.68c0-39.68-30.293-70.059-69.803-70.059zM605.099 742.016c-13.952 0-23.296-9.387-23.296-23.381v-583.68c0-13.995 9.344-23.339 23.296-23.339h349.099c13.952 0 23.253 9.344 23.253 23.339v583.68c0 14.037-9.301 23.381-23.253 23.381h-349.099zM651.648 625.28h256v-70.059h-256v70.059zM651.648 461.824h256v-70.059h-256v70.059zM651.648 298.411h256v-70.059h-256v70.059z" />
<glyph unicode="&#xe935;" glyph-name="tablerowdelete" data-tags="tablerowdelete" horiz-adv-x="1378" d="M1339.137 920.615v-945.231h-1063.385v945.231h1063.385zM1339.137 960h-1063.385c-21.752 0-39.385-17.633-39.385-39.385v0-945.231c0-21.752 17.633-39.385 39.385-39.385v0h1063.385c21.752 0 39.385 17.633 39.385 39.385v0 945.231c0 21.752-17.633 39.385-39.385 39.385v0zM275.752 566.154h1063.385v-39.385h-1063.385zM275.752 369.231h1063.385v-39.385h-1063.385zM275.752 172.308h1063.385v-39.385h-1063.385zM275.752 763.077h1063.385v-39.385h-1063.385zM551.444 920.615v-945.231h-39.385v945.231zM827.137 920.615v-945.231h-39.385v945.231zM1102.829 920.615v-945.231h-39.385v945.231zM275.752 743.385h1063.385q19.692 0 19.692-19.692v-157.538q0-19.692-19.692-19.692h-1063.385q-19.692 0-19.692 19.692v157.538q0 19.692 19.692 19.692zM1339.137 723.692v-157.538h-1063.385v157.538h1063.385zM1339.137 763.077h-1063.385c-21.752 0-39.385-17.633-39.385-39.385v0-157.538c0-21.752 17.633-39.385 39.385-39.385v0h1063.385c21.752 0 39.385 17.633 39.385 39.385v157.538c0 21.752-17.633 39.385-39.385 39.385v0zM177.291 546.462c-0.067-0.001-0.146-0.001-0.226-0.001-5.35 0-10.169 2.269-13.549 5.898l-0.010 0.011-157.538 157.538c-3.677 3.457-5.968 8.354-5.968 13.785s2.29 10.327 5.958 13.775l0.010 0.009c3.457 3.677 8.354 5.968 13.785 5.968s10.327-2.29 13.775-5.958l0.009-0.010 157.538-157.538c3.677-3.457 5.968-8.354 5.968-13.785s-2.29-10.327-5.958-13.775l-0.010-0.009c-3.39-3.64-8.209-5.909-13.559-5.909-0.079 0-0.159 0-0.238 0.001h0.012zM19.752 546.462c-0.067-0.001-0.146-0.001-0.226-0.001-5.35 0-10.169 2.269-13.549 5.898l-0.010 0.011c-3.677 3.457-5.968 8.354-5.968 13.785s2.29 10.327 5.958 13.775l0.010 0.009 157.538 157.538c3.528 3.528 8.401 5.71 13.785 5.71 10.766 0 19.494-8.728 19.494-19.494 0-5.383-2.182-10.257-5.71-13.785v0l-157.538-157.538c-3.39-3.64-8.209-5.909-13.559-5.909-0.079 0-0.159 0-0.238 0.001h0.012z" />
<glyph unicode="&#xe937;" glyph-name="tablerowsplit" data-tags="tablerowsplit" horiz-adv-x="1378" d="M1339.077 920.615v-945.231h-1063.385v945.231h1063.385zM1339.077 960h-1063.385c-21.752 0-39.385-17.633-39.385-39.385v-945.231c0-21.752 17.633-39.385 39.385-39.385h1063.385c21.752 0 39.385 17.633 39.385 39.385v0 945.231c0 21.752-17.633 39.385-39.385 39.385v0zM275.692 369.231h1063.385v-39.385h-1063.385zM275.692 172.308h1063.385v-39.385h-1063.385zM275.692 763.077h1063.385v-39.385h-1063.385zM551.385 920.615v-945.231h-39.385v945.231zM827.077 920.615v-945.231h-39.385v945.231zM1102.769 920.615v-945.231h-39.385v945.231zM275.692 743.385h1063.385q19.692 0 19.692-19.692v-354.462q0-19.692-19.692-19.692h-1063.385q-19.692 0-19.692 19.692v354.462q0 19.692 19.692 19.692zM1339.077 723.692v-354.462h-1063.385v354.462h1063.385zM1339.077 763.077h-1063.385c-21.752 0-39.385-17.633-39.385-39.385v0-354.462c0-21.752 17.633-39.385 39.385-39.385h1063.385c21.752 0 39.385 17.633 39.385 39.385v0 354.462c0 21.752-17.633 39.385-39.385 39.385v0zM98.462 802.462l-98.462-118.154h196.923l-98.462 118.154zM60.652 684.308h75.618q1.575 0 1.575-1.575v-75.618q0-1.575-1.575-1.575h-75.618q-1.575 0-1.575 1.575v75.618q0 1.575 1.575 1.575zM98.462 290.462l-98.462 118.154h196.923l-98.462-118.154zM60.652 487.385h75.618q1.575 0 1.575-1.575v-75.618q0-1.575-1.575-1.575h-75.618q-1.575 0-1.575 1.575v75.618q0 1.575 1.575 1.575zM275.692 566.154h1063.385v-39.385h-1063.385z" />
<glyph unicode="&#xe93b;" glyph-name="tabledelete" data-tags="tabledelete" horiz-adv-x="1142" d="M664.812-64h-606.917c0 0-0.001 0-0.001 0-31.836 0-57.671 25.697-57.894 57.48v909.018c0.223 31.805 26.058 57.502 57.894 57.502 0 0 0.001 0 0.001 0h1026.363c0 0 0.001 0 0.001 0 31.836 0 57.671-25.697 57.894-57.48v-493.904c-0.003-10.874-8.818-19.688-19.692-19.688s-19.69 8.814-19.692 19.688v0 493.883c-0.221 10.052-8.422 18.117-18.507 18.117-0.001 0-0.003 0-0.004 0h-1026.363c-0.001 0-0.003 0-0.004 0-10.085 0-18.286-8.065-18.506-18.096v-909.018c0.221-10.052 8.422-18.117 18.507-18.117 0.001 0 0.003 0 0.004 0h606.917c10.874-0.003 19.688-8.818 19.688-19.692s-8.814-19.69-19.688-19.692v0zM39.385 566.154h1063.385v-39.385h-1063.385zM39.385 369.231h630.154v-39.385h-630.154zM39.385 172.308h590.769v-39.385h-590.769zM39.385 763.077h1063.385v-39.385h-1063.385zM315.077 763.077v-787.692h-39.385v787.692zM590.769 763.077v-787.692h-39.385v787.692zM866.462 763.077v-315.077h-39.385v315.077zM39.385 920.615h1063.385v-157.538h-1063.385zM984.615 73.846c-0.067-0.001-0.146-0.001-0.226-0.001-5.35 0-10.169 2.269-13.549 5.898l-0.010 0.011-118.154 118.154c-3.528 3.528-5.71 8.401-5.71 13.785 0 10.766 8.728 19.494 19.494 19.494 5.383 0 10.257-2.182 13.785-5.71l118.154-118.154c3.677-3.457 5.968-8.354 5.968-13.785s-2.29-10.327-5.958-13.775l-0.010-0.009c-3.39-3.64-8.209-5.909-13.559-5.909-0.079 0-0.159 0-0.238 0.001h0.012zM866.462 73.846c-0.067-0.001-0.146-0.001-0.226-0.001-5.35 0-10.169 2.269-13.549 5.898l-0.010 0.011c-3.677 3.457-5.968 8.354-5.968 13.785s2.29 10.327 5.958 13.775l0.010 0.009 118.154 118.154c3.528 3.528 8.401 5.71 13.785 5.71 10.766 0 19.494-8.728 19.494-19.494 0-5.383-2.182-10.257-5.71-13.785l-118.154-118.154c-3.39-3.64-8.209-5.909-13.559-5.909-0.079 0-0.159 0-0.238 0.001h0.012zM925.538-64c-119.633 0-216.615 96.982-216.615 216.615s96.982 216.615 216.615 216.615c119.633 0 216.615-96.982 216.615-216.615v0c-0.224-119.543-97.072-216.392-216.594-216.615h-0.022zM925.538 329.846c-97.882 0-177.231-79.349-177.231-177.231s79.349-177.231 177.231-177.231c97.882 0 177.231 79.349 177.231 177.231v0c-0.224 97.792-79.439 177.007-177.209 177.231h-0.021z" />
<glyph unicode="&#xe944;" glyph-name="tableinsert" data-tags="tableinsert" horiz-adv-x="1142" d="M1102.769 920.615v-945.231h-1063.385v945.231h1063.385zM1102.769 960h-1063.385c-21.752 0-39.385-17.633-39.385-39.385v0-945.231c0-21.752 17.633-39.385 39.385-39.385v0h1063.385c21.752 0 39.385 17.633 39.385 39.385v0 945.231c0 21.752-17.633 39.385-39.385 39.385v0zM39.385 566.154h1063.385v-39.385h-1063.385zM39.385 369.231h1063.385v-39.385h-1063.385zM39.385 172.308h1063.385v-39.385h-1063.385zM39.385 763.077h1063.385v-39.385h-1063.385zM315.077 763.077v-787.692h-39.385v787.692zM590.769 763.077v-787.692h-39.385v787.692zM866.462 763.077v-787.692h-39.385v787.692zM39.385 920.615h1063.385v-157.538h-1063.385z" />
<glyph unicode="&#xe948;" glyph-name="tablecolmerge" data-tags="tablecolmerge" d="M998 772v-864h-972v864h972zM998 808h-972c-19.881 0-36-16.119-36-36v0-864c0-19.881 16.119-36 36-36v0h972c19.881 0 36 16.119 36 36v0 864c0 19.881-16.119 36-36 36v0zM26 448h972v-36h-972zM26 268h972v-36h-972zM26 88h972v-36h-972zM26 628h972v-36h-972zM278 772v-864h-36v864zM530 772v-864h-36v864zM782 772v-864h-36v864zM278 790h720q18 0 18-18v-504q0-18-18-18h-720q-18 0-18 18v504q0 18 18 18zM998 772v-504h-720v504h720zM998 808h-720c-19.881 0-36-16.119-36-36v0-504c0-19.881 16.119-36 36-36v0h720c19.881 0 36 16.119 36 36v0 504c0 19.881-16.119 36-36 36v0zM458 934l-108 90v-180l108 90zM350 968.56v-69.12q0-1.44-1.44-1.44h-69.12q-1.44 0-1.44 1.44v69.12q0 1.44 1.44 1.44h69.12q1.44 0 1.44-1.44z" />
<glyph unicode="&#xe94f;" glyph-name="tablerowmerge" data-tags="tablerowmerge" horiz-adv-x="1378" d="M1339.077 920.615v-945.231h-1063.385v945.231h1063.385zM1339.077 960h-1063.385c-21.752 0-39.385-17.633-39.385-39.385v-945.231c0-21.752 17.633-39.385 39.385-39.385h1063.385c21.752 0 39.385 17.633 39.385 39.385v0 945.231c0 21.752-17.633 39.385-39.385 39.385v0zM275.692 566.154h1063.385v-39.385h-1063.385zM275.692 369.231h1063.385v-39.385h-1063.385zM275.692 172.308h1063.385v-39.385h-1063.385zM275.692 763.077h1063.385v-39.385h-1063.385zM551.385 920.615v-945.231h-39.385v945.231zM827.077 920.615v-945.231h-39.385v945.231zM1102.769 920.615v-945.231h-39.385v945.231zM275.692 743.385h512q19.692 0 19.692-19.692v-748.308q0-19.692-19.692-19.692h-512q-19.692 0-19.692 19.692v748.308q0 19.692 19.692 19.692zM787.692 723.692v-748.308h-512v748.308h512zM787.692 763.077h-512c-21.752 0-39.385-17.633-39.385-39.385v0-748.308c0-21.752 17.633-39.385 39.385-39.385h512c21.752 0 39.385 17.633 39.385 39.385v0 748.308c0 21.752-17.633 39.385-39.385 39.385v0zM98.462 526.769l98.462 118.154h-196.923l98.462-118.154zM136.271 644.923h-75.618q-1.575 0-1.575 1.575v75.618q0 1.575 1.575 1.575h75.618q1.575 0 1.575-1.575v-75.618q0-1.575-1.575-1.575z" />
<glyph unicode="&#xe998;" glyph-name="edit-regular" data-tags="edit-regular" horiz-adv-x="1152" d="M804.6 270.2l64 64c10 10 27.4 3 27.4-11.4v-290.8c0-53-43-96-96-96h-704c-53 0-96 43-96 96v704c0 53 43 96 96 96h547c14.2 0 21.4-17.2 11.4-27.4l-64-64c-3-3-7-4.6-11.4-4.6h-483v-704h704v227c0 4.2 1.6 8.2 4.6 11.2zM1117.8 673.8l-525.2-525.2-180.8-20c-52.4-5.8-97 38.4-91.2 91.2l20 180.8 525.2 525.2c45.8 45.8 119.8 45.8 165.4 0l86.4-86.4c45.8-45.8 45.8-120 0.2-165.6zM920.2 612l-116.2 116.2-371.6-371.8-14.6-130.6 130.6 14.6 371.8 371.6zM1049.8 771.4l-86.4 86.4c-8.2 8.2-21.6 8.2-29.6 0l-61.8-61.8 116.2-116.2 61.8 61.8c8 8.4 8 21.6-0.2 29.8z" />
<glyph unicode="&#xe999;" glyph-name="trash-alt-regular" data-tags="trash-alt-regular" horiz-adv-x="896" d="M536 128h48c13.255 0 24 10.745 24 24v0 432c0 13.255-10.745 24-24 24v0h-48c-13.255 0-24-10.745-24-24v0-432c0-13.255 10.745-24 24-24v0zM864 800h-164.82l-68 113.4c-17.083 28.11-47.539 46.6-82.314 46.6-0.016 0-0.032 0-0.048 0h-201.637c-0.002 0-0.004 0-0.006 0-34.775 0-65.231-18.49-82.074-46.175l-0.24-0.425-68.040-113.4h-164.82c-17.673 0-32-14.327-32-32v0-32c0-17.673 14.327-32 32-32v0h32v-672c0-53.019 42.981-96 96-96v0h576c53.019 0 96 42.981 96 96v0 672h32c17.673 0 32 14.327 32 32v0 32c0 17.673-14.327 32-32 32v0zM343.68 858.18c2.136 3.511 5.941 5.82 10.286 5.82 0.012 0 0.024 0 0.036 0h187.998c0.004 0 0.009 0 0.014 0 4.345 0 8.15-2.309 10.256-5.767l0.030-0.053 34.92-58.18h-278.44zM736 32h-576v672h576zM312 128h48c13.255 0 24 10.745 24 24v0 432c0 13.255-10.745 24-24 24v0h-48c-13.255 0-24-10.745-24-24v0-432c0-13.255 10.745-24 24-24v0z" />
<glyph unicode="&#xe9df;" glyph-name="emoticons" data-tags="emoticons" d="M512.5-78.014q106.104 0 199.195 40.039 94.092 40.039 163.66 109.607t109.607 163.66q40.039 93.091 40.039 199.195t-40.039 199.195q-40.039 94.092-109.607 163.66t-163.66 109.607q-93.091 40.039-199.195 40.039t-199.195-40.039q-94.092-40.039-163.66-109.607t-109.607-163.66q-40.039-93.091-40.039-199.195t40.039-199.195q40.039-94.092 109.607-163.66t163.66-109.607q93.091-40.039 199.195-40.039zM512.5 850.893q86.084 0 162.158-33.032 76.074-32.031 132.63-88.587t88.587-132.63q33.032-76.074 33.032-162.158t-33.032-162.158q-32.031-76.074-88.587-132.63t-132.63-88.587q-76.074-33.032-162.158-33.032t-162.158 33.032q-76.074 32.031-132.63 88.587t-88.587 132.63q-33.032 76.074-33.032 162.158t33.032 162.158q32.031 76.074 88.587 132.63t132.63 88.587q76.074 33.032 162.158 33.032zM512.5 347.402q43.042 0 86.084 6.006 42.041 6.006 82.581 16.516t78.577 26.526 73.071 36.035q-5.005-67.065-33.032-125.122-27.026-58.057-70.068-101.099t-99.097-67.065q-55.054-25.024-118.115-25.024t-118.115 25.024q-56.055 24.023-99.097 67.065t-70.068 101.099q-28.027 58.057-33.032 125.122 35.034-20.020 73.071-36.035t78.577-26.526 82.581-16.516q43.042-6.006 86.084-6.006zM256.25 594.643q0 40.039 18.518 68.066t45.544 28.027 45.544-28.027 18.518-68.066-18.518-68.066-45.544-28.027-45.544 28.027-18.518 68.066zM640.626 594.643q0 40.039 18.518 68.066t45.544 28.027 45.544-28.027 18.518-68.066-18.518-68.066-45.544-28.027-45.544 28.027-18.518 68.066z" />
<glyph unicode="&#xea5c;" glyph-name="fontname" data-tags="fontname" d="M800.782 930.972q-68.066 0-120.117 8.008t-122.119 8.008q-113.11 0-196.192-30.029-84.082-29.028-138.635-77.576t-80.579-110.608q-27.026-63.062-27.026-128.125 0-77.075 36.536-106.604t108.606-29.529q-6.006 11.011-12.512 30.029t-6.506 74.072q0 153.15 50.549 208.704t124.622 58.557l-16.016-125.122q-16.016-126.123-53.552-283.777t-97.595-300.794q-60.059-144.141-149.146-179.175v-25.024h317.31l108.106 512.5h198.194l44.043 128.125h-215.21l52.051 246.24q45.044-9.009 87.586-16.516t80.579-7.507q46.045 0 86.084 27.527t64.063 134.631q-29.028-9.009-59.558-12.512t-63.562-3.503z" />
<glyph unicode="&#xea65;" glyph-name="strikethrough" data-tags="strikethrough" d="M1025.001 434.487v-64.063h-235.23q21.021-29.028 32.031-61.56t11.011-66.565q0-53.052-26.526-102.1t-74.573-85.083q-44.043-33.032-100.598-51.050t-118.616-18.018-118.616 18.018-100.598 51.050q-48.047 36.035-74.573 85.083t-26.526 102.1h128.125q0-52.051 57.056-90.088t135.132-38.037 135.132 38.037 57.056 90.088-57.056 90.088-135.132 38.037h-512.5v64.063h300.293q-2.002 1.001-4.004 2.502t-3.003 2.502q-48.047 36.035-74.573 85.083t-26.526 102.1 26.526 102.1 74.573 85.083q44.043 33.032 100.598 51.050t118.616 18.018 118.616-18.018 100.598-51.050q48.047-36.035 74.573-85.083t26.526-102.1h-128.125q0 52.051-57.056 90.088t-135.132 38.037-135.132-38.037-57.056-90.088 57.056-90.088 135.132-38.037q59.058 0 114.111-16.516t98.096-47.546h300.293z" />
<glyph unicode="&#xea68;" glyph-name="pagebreak" data-tags="pagebreak" d="M0 434.487h128.125v-64.063h-128.125v64.063zM192.188 434.487h192.188v-64.063h-192.188v64.063zM448.438 434.487h128.125v-64.063h-128.125v64.063zM640.626 434.487h192.188v-64.063h-192.188v64.063zM896.876 434.487h128.125v-64.063h-128.125v64.063zM880.86 946.987l16.016-448.438h-768.751l16.016 448.438h32.031l16.016-384.375h640.626l16.016 384.375h32.031zM144.141-78.014l-16.016 384.375h768.751l-16.016-384.375h-32.031l-16.016 320.313h-640.626l-16.016-320.313h-32.031z" />
<glyph unicode="&#xea71;" glyph-name="table" data-tags="table" d="M0 882.925v-896.876h1025.001v896.876h-1025.001zM384.375 306.362v192.188h256.25v-192.188h-256.25zM640.626 242.299v-192.188h-256.25v192.188h256.25zM640.626 754.8v-192.188h-256.25v192.188h256.25zM320.313 754.8v-192.188h-256.25v192.188h256.25zM64.063 498.549h256.25v-192.188h-256.25v192.188zM704.688 498.549h256.25v-192.188h-256.25v192.188zM704.688 562.612v192.188h256.25v-192.188h-256.25zM64.063 242.299h256.25v-192.188h-256.25v192.188zM704.688 50.111v192.188h256.25v-192.188h-256.25z" />
</font>
</defs>
</svg>
